Торрент файл
скачать торрент магнет ссылка Добавлен: 08 май 2012, 15:41
Размер: 5.7 ГБ
Сидеров: 5
Личеров: 3
Автор

СообщениеДобавлено: 08 май 2012, 15:41 

Не в сети
Супермодератор
Аватара пользователя
Дата регистрации:
11 апр 2010, 18:10
Спасибо: 5921 / 7
Сообщения: 56776
Дворцы Британии в 3Д / Treasure Houses of Britain 3D Год выпуска: 2011
Страна: UK
Жанр: документальный
Продолжительность: по 45 мин
Перевод: отсутствует
Русские субтитры: нет
Описание: Selina Scott проведет зрителя по Chatsworth House, Blenheim Palace, Burghley House, Holkham Hall и Boughton House, представив всю роскошь и величие этих старых британских поместий в новом формате 3D
первый сериал в 3D
Список серий:
    Season 1 Episode 1: Burghley House
    Exploring the opulence of Britain's stately homes. The first programme tours Burghley House, a country residence in Lincolnshire that dates back to the 16th century
    Season 1 Episode 2: Chatsworth
    Selina Scott tours Chatsworth House in the Peak District, discovering its unique collection of paintings, neoclassical sculptures and drawings by the Old Masters
    Season 1 Episode 3: Blenheim
    Selina Scott visits Blenheim Palace in Oxfordshire - the birth place of Winston Churchill, famous for its long galleries and exquisite tapestries.
    Season 1 Episode 4: Holkham Hall
    Selina Scott explores the Palladian architecture of Holkham Hall, an 18th-century mansion on Norfolk's north coast
    Season 1 Episode 5: Chatsworth
    Selina Scott explores 'The English Versailles' in Northamptonshire, home to more than 40 Van Dycks, gilt tables and a grand Louis XV dinner service..
Качество: HDTVrip
Формат: MKV
Формат 3D: Half SideBySide / Горизонтальная анаморфная стереопара
Видео кодек: x264
Аудио кодек: AC3
Видео: MPEG4 Video (H264) 1920x1080 25fps ~3.5 Mbps
Аудио: English : AC3 48000Hz 2ch 192kbps
me
Format : Matroska
File size : 1.16 GiB
Duration : 44mn 46s
Overall bit rate : 3 692 Kbps
Encoded date : UTC 2011-03-05 11:20:15
Writing application : mkvmerge v4.3.0 ('Escape from the Island') built on Sep 5 2010 10:30:51
Writing library : libebml v1.0.0 + libmatroska v1.0.0
Video
ID : 1
Format : AVC
Format/Info : Advanced Video Codec
Format profile : High@L4.1
Format settings, CABAC : Yes
Format settings, ReFrames : 4 frames
Muxing mode : Container profile=Unknown@4.1
Codec ID : V_MPEG4/ISO/AVC
Duration : 44mn 46s
Bit rate : 3 499 Kbps
Width : 1 920 pixels
Height : 1 080 pixels
Display aspect ratio : 16:9
Frame rate : 25.000 fps
Color space : YUV
Chroma subsampling : 4:2:0
Bit depth : 8 bits
Scan type : Progressive
Bits/(Pixel*Frame) : 0.067
Stream size : 1.07 GiB (93%)
Writing library : x264 core 105 r1724 b02df7b
Encoding settings : cabac=1 / ref=3 / deblock=1:0:0 / analyse=0x3:0x113 / me=hex / subme=5 / psy=1 / psy_rd=0.00:0.00 / mixed_ref=1 / me_range=16 / chroma_me=1 / trellis=1 / 8x8dct=1 / cqm=0 / deadzone=21,11 / fast_pskip=1 / chroma_qp_offset=0 / threads=3 / sliced_threads=0 / nr=0 / decimate=1 / interlaced=0 / constrained_intra=0 / bframes=3 / b_pyramid=2 / b_adapt=1 / b_bias=0 / direct=1 / weightb=1 / open_gop=0 / weightp=2 / keyint=250 / keyint_min=25 / scenecut=40 / intra_refresh=0 / rc_lookahead=40 / rc=2pass / mbtree=1 / bitrate=3499 / ratetol=1.0 / qcomp=0.60 / qpmin=10 / qpmax=51 / qpstep=4 / cplxblur=20.0 / qblur=0.5 / ip_ratio=1.40 / aq=1:1.00
Audio
ID : 2
Format : AC-3
Format/Info : Audio Coding 3
Mode extension : ME (music and effects)
Codec ID : A_AC3
Duration : 44mn 46s
Bit rate mode : Constant
Bit rate : 192 Kbps
Channel(s) : 2 channels
Channel positions : Front: L R
Sampling rate : 48.0 KHz
Bit depth : 16 bits
Stream size : 61.5 MiB (5%)
Language : English
Скриншоты




реклама партнёра


Вернуться к началу
 Профиль Отправить личное сообщение  
 
   Похожие торренты   Автор   Торрент   Размер 
В этой теме нет новых непрочитанных сообщений. Hands Like Houses - Unimagine [2013, Alt.Rock,Post-Hardcore,Electronic, MP3]

PriZraK

8 | 2

97.23 МБ

В этой теме нет новых непрочитанных сообщений. Дома, построенные в октябре / The Houses October Built [Ужасы, триллер, 2014] HDRip, dvo

Dracon

554 | 25

1.37 ГБ

В этой теме нет новых непрочитанных сообщений. Хамелеоны мира / Chameleons of the world (BBC) [2011, документальный, HDTVRip] DUB

salma3

0 | 2

899.98 МБ

В этой теме нет новых непрочитанных сообщений. Непобедимый воин [Сезон 3: 10 серий из 10] / Deadliest Warrior (SpikeTV) [2011, документальный, HDTVRip-AVC] VO

salma3

0 | 1

2.16 ГБ

В этой теме нет новых непрочитанных сообщений. BBC: Место назначения - Титан / Destination Titan (Пол Ванезис) [2011, документальный, космос, HDTVRip] VO

salma3

0 | 1

843.21 МБ

В этой теме нет новых непрочитанных сообщений. Wild Rose – Half Past Midnight [2011, Melodic Rock, AOR, MP3]

PriZraK

0 | 1

109.22 МБ

В этой теме нет новых непрочитанных сообщений. История огнестрельного оружия США (13 серий из 13) / Midway USA. Gun Stories (Тим Кремин) [2011, документальный, оружие, HDTVRip] VO

salma3

0 | 0

4.12 ГБ


Начать новую тему Ответить на тему  [ 1 сообщение ] 




Для Мосгорсуда, Роскомнадзора и рекламодателей:: mosgorsud-torrent[собачка]yandex.ru