COVID-19 - Последняя информация о коронавирусе на сайте Минздрава




Торрент файл
скачать торрент магнет ссылка Добавлен: 05 апр 2012, 07:34
Размер: 425.85 МБ
Сидеров: 4
Личеров: 8
Автор

СообщениеДобавлено: 05 апр 2012, 07:34 

Не в сети
Аватара пользователя
Дата регистрации:
28 ноя 2010, 22:22
Спасибо: 722 / 5
Сообщения: 2030
Дьявол / Devil


Перевод: Профессиональный (полное дублирование), cубтитры: отсутствуют
Формат: BDRip, MP4, H.264, AAC
Страна: США
Режиссер: Джон Эрик Даудл
Жанр: ужасы, триллер, детектив
Продолжительность: 01:20:28
Год выпуска: 2010
В ролях: Крис Мессина, Логан Маршалл-Грин, Дженни О’Хара, Бояна Новакович, Букем Вудбайн, Джеффри Аренд, Джейкоб Варгас, Мэтт Крэвеню.
Описание: Несколько людей, оказавшихся в застрявшем лифте, со временем понимают, что среди них присутствует сам дьявол.
Рейтинг на IMDB: 6.5/10
Рейтинг MPAA: PG-13
Видео: 480x208 (2.35:1), 23.976 fps, AVC, H.264, ~ 608 kbps avg, 0.254 bit/pixel
Аудио: Russian 48 kHz, AAC-LC, 2/0 (L,R) ch, ABR, ~128 kbps
Доп. информация: Видео для просмотра на Sony Play Station Portable[PSP]
Трейлеры: http://www.kinopoisk.ru/level/16/film/464168/t/31624/
General
Complete name : E:\Ripped_PSP\Дьявол (Devil, 2010) HDRip.mp4
Format : MPEG-4
Format profile : Base Media
Codec ID : isom
File size : 426 MiB
Duration : 1h 20mn
Overall bit rate : 740 Kbps
Encoded date : UTC 2011-01-28 07:56:10
Tagged date : UTC 2011-01-28 07:56:10

Video
ID : 1
Format : AVC
Format/Info : Advanced Video Codec
Format profile : Main@L3.0
Format settings, CABAC : Yes
Format settings, ReFrames : 3 frames
Codec ID : avc1
Codec ID/Info : Advanced Video Coding
Duration : 1h 20mn
Bit rate mode : Variable
Bit rate : 608 Kbps
Maximum bit rate : 3 180 Kbps
Width : 480 pixels
Height : 208 pixels
Display aspect ratio : 2.35:1
Frame rate mode : Constant
Frame rate : 23.976 fps
Color space : YUV
Chroma subsampling : 4:2:0
Bit depth : 8 bits
Scan type : Progressive
Bits/(Pixel*Frame) : 0.254
Stream size : 350 MiB (82%)
Title : Imported with GPAC 0.4.6-DEV (internal rev. 7)
Writing library : x264 core 108 r1790 8eaf8a6
Encoding settings : cabac=1 / ref=3 / deblock=1:-1:0 / analyse=0x1:0x131 / me=umh / subme=7 / psy=1 / psy_rd=1.00:0.20 / mixed_ref=1 / me_range=16 / chroma_me=1 / trellis=2 / 8x8dct=0 / cqm=0 / deadzone=21,11 / fast_pskip=0 / chroma_qp_offset=-3 / threads=3 / sliced_threads=0 / nr=0 / decimate=0 / interlaced=0 / constrained_intra=0 / bframes=3 / b_pyramid=0 / b_adapt=2 / b_bias=0 / direct=3 / weightb=1 / open_gop=0 / weightp=2 / keyint=250 / keyint_min=23 / scenecut=40 / intra_refresh=0 / rc_lookahead=60 / rc=2pass / mbtree=1 / bitrate=608 / ratetol=1.0 / qcomp=0.60 / qpmin=10 / qpmax=51 / qpstep=4 / cplxblur=20.0 / qblur=0.5 / ip_ratio=1.40 / aq=1:1.00
Encoded date : UTC 2011-01-28 07:56:10
Tagged date : UTC 2011-01-28 07:56:22

Audio
ID : 2
Format : AAC
Format/Info : Advanced Audio Codec
Format version : Version 4
Format profile : LC
Format settings, SBR : No
Codec ID : 40
Duration : 1h 20mn
Bit rate mode : Variable
Bit rate : 128 Kbps
Maximum bit rate : 180 Kbps
Channel(s) : 2 channels
Channel positions : Front: L R
Sampling rate : 48.0 KHz
Compression mode : Lossy
Stream size : 73.5 MiB (17%)
Encoded date : UTC 2011-01-28 07:56:20
Tagged date : UTC 2011-01-28 07:56:22









Поделиться:



Скачать книги и аудио книги через торрент


Вернуться к началу
 Профиль Отправить личное сообщение  
 
   Похожие торренты   Автор   Торрент   Размер 
В этой теме нет новых непрочитанных сообщений. Дьявол / Devil [Ужасы, триллер, детектив, 2010] BDRip 720p, Dub

salma3

0 | 0

2.72 ГБ

В этой теме нет новых непрочитанных сообщений. Дьявол в голубом платье / Devil in a Blue Dress [Триллер, драма, криминал, 1995] BDRip 1080p, Mvo

salma3

0 | 0

11.64 ГБ

В этой теме нет новых непрочитанных сообщений. Ангел и Дьявол / Презираемая / Глумление / Angel and Devil / Scorned [Триллер, драма, 1994] BDRip 720p, Avo

salma3

0 | 0

4.45 ГБ

В этой теме нет новых непрочитанных сообщений. Дьявол в голубом платье / Devil in a Blue Dress [триллер, драма, криминал, 1995] BDRip 720p, Mvo

salma3

0 | 0

7.84 ГБ

В этой теме нет новых непрочитанных сообщений. Гангстер, коп и дьявол / The Gangster, the Cop, the Devil / Akinjeon [Боевик, криминал, триллер, 2019] BDRip, Dub [iTunes]

salma3

0 | 0

1.46 ГБ

В этой теме нет новых непрочитанных сообщений. Гангстер, коп и дьявол / The Gangster, the Cop, the Devil / Akinjeon [Боевик, криминал, триллер, 2019] BDRip 720p, Dub [iTunes]

salma3

13 | 11

5.29 ГБ

В этой теме нет новых непрочитанных сообщений. Вероятно, дьявол / Le diable probablement / The Devil, Probably [драма, 1977] DVD5, Avo

K15

0 | 0

3.13 ГБ


Начать новую тему Ответить на тему  [ 1 сообщение ] 




Для Мосгорсуда, Роскомнадзора и рекламодателей:: rstracker[собака]yandex.ru
cron