COVID-19 - Последняя информация о коронавирусе на сайте Минздрава




Торрент файл
скачать торрент магнет ссылка Добавлен: 05 апр 2012, 07:29
Размер: 647.53 МБ
Сидеров: 22
Личеров: 8
Автор

СообщениеДобавлено: 05 апр 2012, 07:29 

Не в сети
Аватара пользователя
Дата регистрации:
28 ноя 2010, 22:22
Спасибо: 722 / 5
Сообщения: 2030
Спуск / The Descent

Перевод: Профессиональный (полное дублирование), cубтитры: отсутствуют
Формат: DVDRip, MP4, H.264, AAC
Страна: Великобритания
Режиссер: Нил Маршалл
Жанр: ужасы, драма
Продолжительность: 01:39:50
Год выпуска: 2005
Устройство: PSP
В ролях: Шона МакДональд, Натали Джексон Мендоза, Алекс Рейд, Саския Малдер, Мианна Беринг, Нора-Джейн Нун, Оливер Милберн, Молли Кайл, Крэйг Конуэй, Лесли Симпсон и др.

Описание: Компания смелых очаровательных девушек привыкла проводить свой отпуск в экстремальных путешествиях. На этот раз принято решение исследовать отдаленные горные хребты. Все идет неплохо до тех пор, пока они не находят загадочный грот. Какие тайны он хранит? Женское любопытство одерживает верх над осторожностью, и вот подруги уже глубоко под землёй. Внезапный камнепад замуровывает выход наверх, и герои вынуждены отправиться вглубь бесконечных тёмных катакомб в поисках спасения. Вскоре они выясняют, что мрак, холод, голод, отчаянье и страх — не единственные их попутчики в этом подземном путешествии. Грот оказывается населённым неизвестными кошмарными созданиями, которые не прочь познакомиться поближе… Долгожданный отпуск оборачивается леденящим душу ужасом, а загадочная пещера — склепом. Темнота и тишина…только слышно, как быстро бьётся твоё собственное сердце, охваченное первобытным страхом…

Рейтинг на IMDB: 7.4/10 (64143)
Рейтинг на КиноПоиск.Ru: 6.970 (9297)
Рейтинг MPAA: R

Видео: MPEG4 Video (H264) 480x272 29.97fps
Аудио: AAC 48000Hz stereo 1536kbps

Доп. информация: ...Для просмотра на PSP...

General
Complete name: C:\Torrents\Spusk_[PSP]_[tfile.ru].mp4
Format: MPEG-4
Format profile: Sony PSP
Codec ID: MSNV
File size: 648 MiB
Duration: 1h 39mn
Overall bit rate: 907 Kbps
Encoded date: UTC 2011-02-04 11:20:12
Tagged date: UTC 2011-02-04 11:20:12

Video
ID: 1
Format: AVC
Format/Info: Advanced Video Codec
Format profile: Main@L2.1
Format settings, CABAC: Yes
Format settings, ReFrames: 1 frame
Codec ID: avc1
Codec ID/Info: Advanced Video Coding
Duration: 1h 39mn
Bit rate mode: Variable
Bit rate: 774 Kbps
Width: 480 pixels
Height: 272 pixels
Display aspect ratio: 16:9
Frame rate mode: Constant
Frame rate: 29.970 fps
Color space: YUV
Chroma subsampling: 4:2:0
Bit depth: 8 bits
Scan type: Progressive
Bits/(Pixel*Frame): 0.198
Stream size: 553 MiB (85%)
Encoded date: UTC 2011-02-04 11:20:12
Tagged date: UTC 2011-02-04 11:20:12

Audio
ID: 2
Format: AAC
Format/Info: Advanced Audio Codec
Format version: Version 4
Format profile: LC
Format settings, SBR: No
Codec ID: 40
Duration: 1h 39mn
Bit rate mode: Variable
Bit rate: 128 Kbps
Channel(s): 2 channels
Channel positions: Front: L R
Sampling rate: 48.0 KHz
Stream size: 91.3 MiB (14%)
Encoded date: UTC 2011-02-04 11:20:12
Tagged date: UTC 2011-02-04 11:20:12










Поделиться:



Скачать книги и аудио книги через торрент


Вернуться к началу
 Профиль Отправить личное сообщение  
 
   Похожие торренты   Автор   Торрент   Размер 
В этой теме нет новых непрочитанных сообщений. Спуск / The Descent [ужасы, триллер, приключения, 2005] BDRip, Avo [Сербин]

salma3

0 | 0

1.44 ГБ

В этой теме нет новых непрочитанных сообщений. Порномация / Pornomation (2005) DVDRip

zorgi

6 | 1

816.32 МБ

В этой теме нет новых непрочитанных сообщений. Чемпионат Мира 2018. 1/8 финала. Уругвай - Португалия (30.06.2018) HDTV [H.264/1080i]

salma3

0 | 0

9.51 ГБ

В этой теме нет новых непрочитанных сообщений. Чемпионат Мира 2018. 1/8 финала. Испания - Россия (01.07.2018) HDTV [H.264/1080i]

salma3

0 | 0

14.93 ГБ

В этой теме нет новых непрочитанных сообщений. Чемпионат Мира 2018. 1/8 финала. Швеция -Швейцария (03.07.2018) HDTV [H.264/1080i-LQ]

salma3

0 | 0

8.96 ГБ

В этой теме нет новых непрочитанных сообщений. Чемпионат Мира 2018. 1/8 финала. Бельгия - Япония (02.07.2018) HDTV [H.264/1080i-LQ]

salma3

0 | 0

9.77 ГБ

В этой теме нет новых непрочитанных сообщений. Чемпионат Мира 2018. 1/8 финала. Колумбия - Англия (03.07.2018) HDTV [H.264/1080i-LQ]

salma3

0 | 0

13.03 ГБ


Начать новую тему Ответить на тему  [ 1 сообщение ] 




Для Мосгорсуда, Роскомнадзора и рекламодателей:: rstracker[собака]yandex.ru
cron