COVID-19 - Последняя информация о коронавирусе на сайте Минздрава




Торрент файл
скачать торрент магнет ссылка Добавлен: 05 апр 2012, 07:18
Размер: 740.38 МБ
Сидеров: 28
Личеров: 4
Автор

СообщениеДобавлено: 05 апр 2012, 07:18 

Не в сети
Аватара пользователя
Дата регистрации:
28 ноя 2010, 22:22
Спасибо: 722 / 5
Сообщения: 2030
Зеленый Фонарь / Green Lantern

Перевод: Авторский (Вячеслав Замез), cубтитры: отсутствуют
Формат: DVDRip, MP4, H.264, AAC
Страна: США
Режиссер: Мартин Кэмпбелл
Жанр: фантастика, фэнтези, боевик, триллер, криминал
Продолжительность: 01:53:59
Год выпуска: 2011
Устройство: PSP
В ролях: Райан Рейнольдс. Блейк Лайвли. Питер Сарсгаард. Марк Стронг.Темуэра Моррисон. Дженна Крэйг.Джон Тенни. Майк Дойл. Гэтлин Гриффит. Николас Джендл
Описание: Во Вселенной, столь же бесконечной, сколь и загадочной, многие века существовал отряд воинов, обладающих огромной силой. Защитники мира и справедливости, их называют Корпус Зеленых Фонарей. Братство воинов, поклявшихся защищать межгалактический закон, где каждый из них носит кольцо, дарующее ему сверхспособности. Но когда новый враг по имени Параллакс угрожает нарушить равновесие во Вселенной, их судьба и судьба Земли оказывается в руках новобранца, первого человека в истории отряда — Хэла Джордана.

Хэл — дерзкий и талантливый летчик-испытатель, но Зеленые Фонари не испытывают доверия и уважения к человечеству, ведь людям до этого ни разу не удалось обуздать безграничную силу кольца. Но Хэл — как недостающий кусочек мозаики, и вместе с решимостью и силой воли он обладает тем, чего не было ни у одного звездного воителя, — человечностью. Если при поддержке напарника и подруги детства Кэрол Феррис (Блейк Лайвли) Хэл сможет быстро научиться управлять мощью кольца и найдет мужество преодолеть свои страхи, он сможет не только доказать, что он является ключом к победе над Параллаксом… но и станет величайшим Зеленым Фонарем из всех.

[/field]

Видео:AVC at 776 Кбит/сек : 480 x 272 (1.765) at 23.976 fps
Аудио:AAC at 128 Кбит/сек : 2 канала, 48,0 КГц
Доп. информация: Данное видео предназначено для просмотра на PSP
Общее
Полное имя: C:\Users\Роман\Videos\Zelenyj.Fonar.2011.XviD.DVDRip.mp4
Формат: MPEG-4
Профиль формата: Sony PSP
Идентификатор кодека: MSNV
Размер файла: 740 Мбайт
Продолжительность: 1 ч. 53 м.
Общий поток: 908 Кбит/сек
Дата кодирования: UTC 2011-10-11 17:59:22
Дата пометки: UTC 2011-10-11 17:59:22

Видео
Идентификатор: 1
Формат: AVC
Формат/Информация: Advanced Video Codec
Профиль формата: Main@L2.1
Параметр CABAC формата: Да
Параметр ReFrames формата: 1 кадр
Идентификатор кодека: avc1
Идентификатор кодека/Информация: Advanced Video Coding
Продолжительность: 1 ч. 53 м.
Вид битрейта: Переменный
Битрейт: 776 Кбит/сек
Ширина: 480 пикс.
Высота: 272 пикс.
Соотношение сторон: 16:9
Режим частоты кадров: Постоянный
Частота кадров: 23,976 кадр/сек
Цветовое пространство: YUV
Подвыборка цветности: 4:2:0
Битовая глубина: 8 бит
Тип развёртки: Прогрессивная
Бит/(Пиксели*Кадры): 0.248
Размер потока: 633 Мбайт (85%)
Дата кодирования: UTC 2011-10-11 17:59:22
Дата пометки: UTC 2011-10-11 17:59:22

Аудио
Идентификатор: 2
Формат: AAC
Формат/Информация: Advanced Audio Codec
Профиль формата: LC
Идентификатор кодека: 40
Продолжительность: 1 ч. 53 м.
Вид битрейта: Переменный
Битрейт: 128 Кбит/сек
Канал(ы): 2 канала(ов)
Расположение каналов: Front: L R
Частота: 48,0 КГц
Метод сжатия: С потерями
Размер потока: 104 Мбайт (14%)
Дата кодирования: UTC 2011-10-11 17:59:22
Дата пометки: UTC 2011-10-11 17:59:22










Поделиться:



Скачать книги и аудио книги через торрент


Вернуться к началу
 Профиль Отправить личное сообщение  
 
   Похожие торренты   Автор   Торрент   Размер 
В этой теме нет новых непрочитанных сообщений. Зеленый ад / The Green Inferno [ужасы, приключения, 2013] BDRemux 1080р, Dvo

salma3

0 | 0

25.55 ГБ

В этой теме нет новых непрочитанных сообщений. Зеленый ад / The Green Inferno [ужасы, приключения, 2013] BDRip 720p, Dvo

salma3

0 | 0

3.9 ГБ

В этой теме нет новых непрочитанных сообщений. Зелёный Генрих / Der grüne Heinrich [драма, 1993] DVDRip, Mvo

salma3

В этой теме нет новых непрочитанных сообщений. Зелёный Генрих / Der grüne Heinrich [драма, 1993] DVDRip, Mvo

salma3

0 | 0

1.46 ГБ

В этой теме нет новых непрочитанных сообщений. Зелёный Генрих / Der grüne Heinrich [драма, 1993] DVDRip-AVC, Mvo

salma3

0 | 0

1.93 ГБ

В этой теме нет новых непрочитанных сообщений. [CristiAnnLive.com] Maggie Green, Cristi Ann (Playing with Maggie Green for the First Time!) [2018-06-28, Blonde, Latina, Bit Tits, Brunette, Lesbian, 406p]

salma3

0 | 0

128.16 МБ

В этой теме нет новых непрочитанных сообщений. [WildOnCam.com / CherryPimps.com] Gracie May Green (Welcome Sexy Gracie May Green LIVE / 01.02.2018) [2018 г., Blowjob, Brunette, Cowgirl, Doggystyle, Glasses, Hardcore, Lingerie, Shaved, Stockings, Tattoo, Teen, Facial, 1080p]

salma3

10 | 3

4.26 ГБ


Начать новую тему Ответить на тему  [ 1 сообщение ] 




Для Мосгорсуда, Роскомнадзора и рекламодателей:: rstracker[собака]yandex.ru
cron