Торрент файл
скачать торрент магнет ссылка Добавлен: 20 авг 2017, 15:43
Размер: 4.92 ГБ
Сидеров: 10
Личеров: 1
Автор

СообщениеДобавлено: 20 авг 2017, 15:43 

Не в сети
Супермодератор
Аватара пользователя
Дата регистрации:
15 фев 2012, 16:44
Возраст: 28
Спасибо: 7204 / 2147
Сообщения: 65100
Год выпуска: 1995
Оригинальное название: Braveheart
Страна: США
Жанр: драма, военный, биография, история
Возраст: 16+

Режиссер: Мэл Гибсон

В ролях: Мэл Гибсон, Софи Марсо, Патрик МакГуэн, Энгус Макфадьен, Брендан Глисон, Катрин МакКормак, Брайан Кокс, Джерард МакСорли, Мартин Мерфи, Томми Флэнаган, Джон Мурта, Джеймс Робинсон, Шон Лоулор, Сэнди Нельсон, Джеймс Космо, Шон МакГинли, Алан Толл, Эндрю Вейр, Герда Стивенсон, Ральф Райч

Описание: Действие фильма начинается в 1280 году в Шотландии. Это история легендарного национального героя Уильяма Уолласа, посвятившего себя борьбе с англичанами при короле Эдварде Длинноногом.

Он рано лишился отца, погибшего от рук англичан, и его забрал к себе дядя Оргайл, который дал ему хорошее образование в Европе. На родину Уильям возвращается уже взрослым человеком, мечтающем завести семью и жить мирной жизнью.

Но судьба распорядилась иначе. Его невесту убили англичане, и он начал свой крестовый поход за свободу.

Продолжительность: 02:57:44
Перевод: Дублированный
Оригинальная дорожка: нет

Автор рипа:

Качество видео: BDRip 720p Исходник: Blu-Ray Remux (1080p) Формат: mp4
Видео кодек: MPEG-4 AVC Аудио кодек: AAC
Видео: 1280x546 (2.35:1) at 23.976 fps, AVC at 3 830 kbps avg, 0.229 bit/pixel
Аудио №1 Rus: 48.0 KHz, AAC, 2 ch, 128.0 Kbps
Субтитры: русские (полные), английские (полные)
Навигация по главам: есть
Размер: 4.92 GiB

avs [info]: 1280x546p 1:1 @ 24000/1001 fps (cfr)
x264 [info]: using SAR=1/1
x264 [info]: using cpu capabilities: MMX2 SSE2Fast SSSE3 Cache64
x264 [info]: profile High, level 4.1
x264 [info]: frame I:2697 Avg QP:16.23 size:132869
x264 [info]: frame P:53391 Avg QP:19.30 size: 37930
x264 [info]: frame B:199573 Avg QP:21.39 size: 13635
x264 [info]: consecutive B-frames: 2.1% 1.9% 6.6% 16.4% 16.0% 51.1% 5.9%
x264 [info]: mb I I16..4: 3.9% 76.2% 19.9%
x264 [info]: mb P I16..4: 2.2% 13.4% 1.8% P16..4: 38.8% 26.1% 14.8% 0.0% 0.0% skip: 2.8%
x264 [info]: mb B I16..4: 0.1% 2.1% 0.3% B16..8: 44.7% 10.7% 2.6% direct: 6.7% skip:32.8% L0:46.1% L1:45.3% BI: 8.5%
x264 [info]: 8x8 transform intra:79.5% inter:64.9%
x264 [info]: coded y,uvDC,uvAC intra: 83.0% 88.1% 53.9% inter: 31.6% 33.3% 2.3%
x264 [info]: i16 v,h,dc,p: 61% 10% 5% 24%
x264 [info]: i8 v,h,dc,ddl,ddr,vr,hd,vl,hu: 16% 11% 26% 6% 9% 9% 8% 8% 8%
x264 [info]: i4 v,h,dc,ddl,ddr,vr,hd,vl,hu: 28% 11% 11% 7% 11% 10% 9% 7% 6%
x264 [info]: i8c dc,h,v,p: 54% 18% 20% 9%
x264 [info]: Weighted P-Frames: Y:4.7% UV:1.6%
x264 [info]: ref P L0: 45.6% 13.4% 17.1% 6.4% 5.7% 3.9% 3.7% 2.0% 2.1% 0.1% 0.0%
x264 [info]: ref B L0: 73.7% 11.2% 6.0% 3.2% 2.4% 2.0% 1.2% 0.4%
x264 [info]: ref B L1: 94.1% 5.9%
x264 [info]: kb/s:3829.68
encoded 255661 frames, 2.01 fps, 3829.68 kb/s
General
Complete name : ...Xrabroe_serdce_1995_KinoGadget.mp4
Format : MPEG-4
Format profile : Base Media
Codec ID : isom (isom)
File size : 4.92 GiB
Duration : 2 h 57 min
Overall bit rate mode : Variable
Overall bit rate : 3 966 kb/s
Movie name : Храброе сердце | KinoGadget
Performer : Мэл Гибсон
Director : Мэл Гибсон
Actor : Мэл Гибсон / Софи Марсо / Патрик МакГуэн / Энгус Макфадьен / Брендан Глисон / Катрин МакКормак / Брайан Кокс / Джерард МакСорли / Мартин Мерфи / Томми Флэнаган / Джон Мурта / Джеймс Робинсон / Шон Лоулор / Сэнди Нельсон / Джеймс Космо / Шон МакГинли / Алан Толл / Эндрю Вейр / Герда Стивенсон / Ральф Райч
Screenplay by : Рэндалл Уоллес
Producer : Брюс Дэвей / Мэл Гибсон / Алан Лэдд мл.
Genre : Drama
ContentType : Short Film
Recorded date : 1995
Encoded date : UTC 2017-08-18 16:32:03
Tagged date : UTC 2017-08-20 10:55:15
Cover : Yes
ContentRating : mpaa|R|400|
LongDeion : Действие фильма начинается в 1280 году в Шотландии. Это история легендарного национального героя Уильяма Уолласа, посвятившего себя борьбе с англичанами при короле Эдварде Длинноногом. / / Он рано лишился отца, погибшего от рук англичан, и его забрал к себе дядя Оргайл, который дал ему хорошее образование в Европе. На родину Уильям возвращается уже взрослым человеком, мечтающем завести семью и жить мирной жизнью. / / Но судьба распорядилась иначе. Его невесту убили англичане, и он начал свой крестовый поход за свободу.
HDVideo : Yes

Video
ID : 1
Format : AVC
Format/Info : Advanced Video Codec
Format profile : High@L4.1
Format settings, CABAC : Yes
Format settings, ReFrames : 9 frames
Codec ID : avc1
Codec ID/Info : Advanced Video Coding
Duration : 2 h 57 min
Bit rate : 3 830 kb/s
Maximum bit rate : 20.6 Mb/s
Width : 1 280 pixels
Height : 546 pixels
Display aspect ratio : 2.35:1
Frame rate mode : Constant
Frame rate : 23.976 (24000/1001) FPS
Color space : YUV
Chroma subsampling : 4:2:0
Bit depth : 8 bits
Scan type : Progressive
Bits/(Pixel*Frame) : 0.229
Stream size : 4.75 GiB (97%)
Writing library : x264 core 148 r2744 b97ae06
Encoding settings : cabac=1 / ref=9 / deblock=1:-2:-1 / analyse=0x3:0x113 / me=umh / subme=7 / psy=1 / psy_rd=1.00:0.00 / mixed_ref=1 / me_range=32 / chroma_me=1 / trellis=2 / 8x8dct=1 / cqm=0 / deadzone=21,11 / fast_pskip=0 / chroma_qp_offset=-2 / threads=3 / lookahead_threads=1 / sliced_threads=0 / nr=0 / decimate=1 / interlaced=0 / bluray_compat=0 / constrained_intra=0 / bframes=6 / b_pyramid=2 / b_adapt=2 / b_bias=0 / direct=1 / weightb=1 / open_gop=0 / weightp=2 / keyint=250 / keyint_min=25 / scenecut=40 / intra_refresh=0 / rc_lookahead=60 / rc=crf / mbtree=1 / crf=19.0 / qcomp=0.60 / qpmin=0 / qpmax=69 / qpstep=4 / vbv_maxrate=62500 / vbv_bufsize=78125 / crf_max=0.0 / nal_hrd=none / filler=0 / ip_ratio=1.40 / aq=1:1.00
Encoded date : UTC 2017-08-17 16:06:48
Tagged date : UTC 2017-08-18 16:33:46

Audio
ID : 2
Format : AAC
Format/Info : Advanced Audio Codec
Format profile : LC
Codec ID : 40
Duration : 2 h 57 min
Bit rate mode : Variable
Bit rate : 128 kb/s
Maximum bit rate : 135 kb/s
Channel(s) : 2 channels
Channel positions : Front: L R
Sampling rate : 48.0 kHz
Frame rate : 46.875 FPS (1024 spf)
Compression mode : Lossy
Stream size : 163 MiB (3%)
Language : Russian
Encoded date : UTC 2017-08-17 16:14:07
Tagged date : UTC 2017-08-18 16:33:46

Text #1
ID : 3
Format : Timed Text
Codec ID : tx3g
Duration : 2 h 50 min
Bit rate mode : Variable
Bit rate : 52 b/s
Stream size : 65.4 KiB (0%)
Language : Russian
Forced : No
Encoded date : UTC 2017-08-18 16:33:46
Tagged date : UTC 2017-08-18 16:33:46

Text #2
ID : 4
Format : Timed Text
Codec ID : tx3g
Duration : 2 h 50 min
Bit rate mode : Variable
Bit rate : 33 b/s
Stream size : 40.6 KiB (0%)
Language : English
Forced : No
Encoded date : UTC 2017-08-18 16:33:46
Tagged date : UTC 2017-08-18 16:33:46

Menu
00:00:00.000 : Chapter 01
00:07:25.528 : Chapter 02
00:16:24.441 : Chapter 03
00:22:00.694 : Chapter 04
00:34:16.888 : Chapter 05
00:39:49.678 : Chapter 06
00:56:04.986 : Chapter 07
01:00:01.264 : Chapter 08
01:07:28.044 : Chapter 09
01:11:51.932 : Chapter 10
01:19:01.528 : Chapter 11
01:33:03.202 : Chapter 12
01:43:44.718 : Chapter 13
01:53:55.453 : Chapter 14
01:58:58.464 : Chapter 15
02:17:15.477 : Chapter 16
02:24:18.900 : Chapter 17
02:28:49.795 : Chapter 18
02:34:12.409 : Chapter 19
02:36:32.091 : Chapter 20
02:46:53.878 : Chapter 21
02:50:43.066 : Chapter 22



_________________
Проголосуй за трекер Открытый торрент трекер - RUS-MEDIA.ORG

Проголосуй Открытый торрент трекер - RUS-MEDIA.ORG


Вернуться к началу
 Профиль Отправить личное сообщение  
 
   Похожие торренты   Автор   Торрент   Размер 
В этой теме нет новых непрочитанных сообщений. Храброе сердце / Braveheart [боевик, драма, военный, биография, история, 1995] Blu-Ray, Dub+Sub [Лицензия]

salma3

61 | 67

37.24 ГБ

В этой теме нет новых непрочитанных сообщений. Храброе сердце / Braveheart [Драма, военный, биография, история, 1995] BDRemux, 5Mvo+6Avo+Dvo+Sub

salma3

6 | 8

65.64 ГБ

В этой теме нет новых непрочитанных сообщений. Храброе сердце / Braveheart (Мэл Гибсон) [1995, боевик, драма, военный, биография, BDRip, 1080p]

marya111

0 | 1

16.91 ГБ

В этой теме нет новых непрочитанных сообщений. Храброе сердце / Braveheart [Исторический, драма, военный, 1995] BDRip-HEVC 2160p, Dub [4K]

salma3

3 | 20

67.16 ГБ

В этой теме нет новых непрочитанных сообщений. Храброе сердце / Braveheart [Исторический, драма, военный, 1995] UHD BDRemux 2160p, Dub [4K]

salma3

0 | 1

80.06 ГБ

В этой теме нет новых непрочитанных сообщений. Кромвель / Cromwell [драма, военный, биография, история, 1970] BDRip 720p, Dvo [НТВ+]

salma3

144 | 12

3.72 ГБ

В этой теме нет новых непрочитанных сообщений. Освободитель / Libertador [драма, история, военный, биография, 2013] BDRip 720p, Dvo

salma3

143 | 43

6.4 ГБ


Начать новую тему Ответить на тему  [ 1 сообщение ] 




Для Мосгорсуда, Роскомнадзора и рекламодателей:: mosgorsud-torrent[собачка]yandex.ru
cron