Торрент файл
скачать торрент магнет ссылка Добавлен: 09 апр 2017, 11:58
Размер: 1.93 ГБ
Сидеров: 0
Личеров: 0
Автор

СообщениеДобавлено: 09 апр 2017, 11:58 

Не в сети
Супермодератор
Аватара пользователя
Дата регистрации:
15 фев 2012, 16:44
Возраст: 28
Спасибо: 7163 / 2147
Сообщения: 61819
Страна: США, Германия
Жанр: ужасы
Возраст: 16+
Режиссер: Роб Шмидт
В ролях: Десмонд Харрингтон, Элиза Душку, Эммануэль Шрики, Джереми Систо, Кевин Зегерс, Линди Бут, Джулиан Ричингс, Гэрри Роббинс, Тед Кларк, Ивонн Годри, Джоэль Харрис, Дэвид Хубанд, Уэйн Робсон, Джеймс Доунинг
Описание: Затерявшись в лесах Западной Вирджинии в результате рокового стечения обстоятельств, группа молодых людей пытается добраться до ближайшего телефона. Но вместо телефона им суждено найти дом в горах, увешанный страшным оружием и отвратительными трофеями…
Кто, или что живет в этом доме? Молодые люди начинают понимать, что все их злоключения — способ загнать дичь в ловушку, где они — это дичь, а зловещие охотники — обитатели дома…

Продолжительность: 01:24:14
Перевод: Дублированный
Оригинальная дорожка: есть
Автор рипа:
Качество видео: BDRip 720p Исходник: Blu-Ray Remux (1080p) Формат: mp4
Видео кодек: MPEG-4 AVC Аудио кодек: AAC
Видео: 1280x694 (1.85:1) at 23.976 fps, AVC at 3 005 kbps avg, 0.141 bit/pixel
Аудио №1 Rus: 48.0 KHz, AAC, 2 ch, 128.0 Kbps
Аудио №2 Eng: 48.0 KHz, AAC, 2 ch, 128.0 Kbps
Субтитры: нет
Навигация по главам: нет
Размер: 1.93 GiB
avs [info]: 1280x694p 1:1 @ 24000/1001 fps (cfr)
x264 [info]: using SAR=1/1
x264 [info]: using cpu capabilities: MMX2 SSE2Fast SSSE3 Cache64
x264 [info]: profile High, level 4.1
x264 [info]: frame I:2038 Avg QP:17.84 size: 67795
x264 [info]: frame P:77620 Avg QP:20.58 size: 18895
x264 [info]: frame B:41530 Avg QP:22.80 size: 7077
x264 [info]: consecutive B-frames: 43.5% 29.9% 10.6% 10.4% 5.5%
x264 [info]: mb I I16..4: 8.5% 77.0% 14.6%
x264 [info]: mb P I16..4: 1.1% 5.3% 0.5% P16..4: 48.1% 17.6% 11.9% 0.0% 0.0% skip:15.5%
x264 [info]: mb B I16..4: 0.0% 0.3% 0.1% B16..8: 48.3% 4.8% 0.9% direct: 2.3% skip:43.3% L0:41.5% L1:53.5% BI: 5.0%
x264 [info]: 8x8 transform intra:76.5% inter:78.6%
x264 [info]: coded y,uvDC,uvAC intra: 73.0% 72.1% 30.2% inter: 29.1% 33.7% 0.9%
x264 [info]: i16 v,h,dc,p: 31% 12% 8% 49%
x264 [info]: i8 v,h,dc,ddl,ddr,vr,hd,vl,hu: 18% 12% 24% 6% 8% 9% 8% 8% 7%
x264 [info]: i4 v,h,dc,ddl,ddr,vr,hd,vl,hu: 25% 15% 14% 7% 10% 9% 8% 7% 5%
x264 [info]: i8c dc,h,v,p: 57% 18% 19% 6%
x264 [info]: Weighted P-Frames: Y:4.5% UV:1.8%
x264 [info]: ref P L0: 53.2% 11.6% 15.0% 5.9% 4.3% 3.2% 2.8% 1.5% 1.4% 1.0% 0.0%
x264 [info]: ref B L0: 77.5% 11.6% 4.7% 2.3% 1.5% 1.3% 0.9% 0.2%
x264 [info]: ref B L1: 96.2% 3.8%
x264 [info]: kb/s:3005.10
encoded 121188 frames, 1.84 fps, 3005.10 kb/s

General
Format : MPEG-4
Format profile : Base Media
Codec ID : isom (isom)
File size : 1.93 GiB
Duration : 1 h 24 min
Overall bit rate mode : Variable
Overall bit rate : 3 272 kb/s
Movie name : Поворот не туда
Performer : Роб Шмидт
Director : Роб Шмидт
Actor : Десмонд Харрингтон / Элиза Душку / Эммануэль Шрики / Джереми Систо / Кевин Зегерс / Линди Бут / Джулиан Ричингс / Гэрри Роббинс / Тед Кларк / Ивонн Годри / Джоэль Харрис / Дэвид Хубанд / Уэйн Робсон / Джеймс Доунинг
Screenplay by : Алан Б. МакЭлрой
Producer : Эрик Фейг / Роберт Кульцер / Стэн Уинстон
Genre : Horror
ContentType : Short Film
Recorded date : 2003
Encoded date : UTC 2017-01-08 16:04:09
Tagged date : UTC 2017-01-12 08:57:45
Cover : Yes
Xtra : WM/ParentalRating
ContentRating : mpaa|R|400|
LongDeion : Затерявшись в лесах Западной Вирджинии в результате рокового стечения обстоятельств, группа молодых людей пытается добраться до ближайшего телефона. Но вместо телефона им суждено найти дом в горах, увешанный страшным оружием и отвратительными трофеями…
HDVideo : Yes
Video
ID : 1
Format : AVC
Format/Info : Advanced Video Codec
Format profile : High@L4.1
Format settings, CABAC : Yes
Format settings, ReFrames : 9 frames
Codec ID : avc1
Codec ID/Info : Advanced Video Coding
Duration : 1 h 24 min
Bit rate : 3 005 kb/s
Maximum bit rate : 9 622 kb/s
Width : 1 280 pixels
Height : 694 pixels
Display aspect ratio : 1.85:1
Frame rate mode : Constant
Frame rate : 23.976 (24000/1001) FPS
Color space : YUV
Chroma subsampling : 4:2:0
Bit depth : 8 bits
Scan type : Progressive
Bits/(Pixel*Frame) : 0.141
Stream size : 1.77 GiB (92%)
Writing library : x264 core 148 r2638 7599210
Encoding settings : cabac=1 / ref=9 / deblock=1:-2:-1 / analyse=0x3:0x113 / me=umh / subme=7 / psy=1 / psy_rd=1.00:0.15 / mixed_ref=1 / me_range=32 / chroma_me=1 / trellis=1 / 8x8dct=1 / cqm=0 / deadzone=21,11 / fast_pskip=1 / chroma_qp_offset=-3 / threads=3 / lookahead_threads=1 / sliced_threads=0 / nr=0 / decimate=1 / interlaced=0 / bluray_compat=0 / constrained_intra=0 / bframes=4 / b_pyramid=2 / b_adapt=1 / b_bias=0 / direct=1 / weightb=1 / open_gop=0 / weightp=2 / keyint=240 / keyint_min=23 / scenecut=40 / intra_refresh=0 / rc_lookahead=40 / rc=crf / mbtree=1 / crf=20.0 / qcomp=0.60 / qpmin=0 / qpmax=69 / qpstep=4 / vbv_maxrate=62500 / vbv_bufsize=78125 / crf_max=0.0 / nal_hrd=none / filler=0 / ip_ratio=1.40 / aq=1:1.00
Language : Russian
Encoded date : UTC 2017-01-08 12:30:04
Tagged date : UTC 2017-01-08 16:05:28
Audio #1
ID : 2
Format : AAC
Format/Info : Advanced Audio Codec
Format profile : LC
Codec ID : 40
Duration : 1 h 24 min
Bit rate mode : Variable
Bit rate : 128 kb/s
Maximum bit rate : 135 kb/s
Channel(s) : 2 channels
Channel positions : Front: L R
Sampling rate : 48.0 kHz
Frame rate : 46.875 FPS (1024 spf)
Compression mode : Lossy
Stream size : 77.1 MiB (4%)
Title : Dub
Language : Russian
Encoded date : UTC 2017-01-07 15:09:03
Tagged date : UTC 2017-01-08 16:05:28
Audio #2
ID : 3
Format : AAC
Format/Info : Advanced Audio Codec
Format profile : LC
Codec ID : 40
Duration : 1 h 24 min
Bit rate mode : Variable
Bit rate : 128 kb/s
Maximum bit rate : 135 kb/s
Channel(s) : 2 channels
Channel positions : Front: L R
Sampling rate : 48.0 kHz
Frame rate : 46.875 FPS (1024 spf)
Compression mode : Lossy
Stream size : 77.1 MiB (4%)
Language : English
Encoded date : UTC 2017-01-07 15:20:08
Tagged date : UTC 2017-01-08 16:05:28




_________________
Проголосуй за трекер Открытый торрент трекер - RUS-MEDIA.ORG

Проголосуй Открытый торрент трекер - RUS-MEDIA.ORG


Вернуться к началу
 Профиль Отправить личное сообщение  
 
   Похожие торренты   Автор   Торрент   Размер 
В этой теме нет новых непрочитанных сообщений. Поворот не туда 6 / Wrong Turn 6: Last Resort [ужасы, 2014] BDRip 720p, Mvo [iPad] [Unrated]

salma3

0 | 0

2.06 ГБ

В этой теме нет новых непрочитанных сообщений. Поворот не туда 2: Тупик / Wrong Turn 2: Dead End [ужасы, 2007] BDRip 720p, Dub [iPad]

salma3

0 | 0

2.57 ГБ

В этой теме нет новых непрочитанных сообщений. Поворот не туда 5: Кровное родство / Wrong Turn 5: Bloodlines [ужасы, 2012] BDRip 720p, Dub [iPad] [Лицензия]

salma3

7 | 1

1.78 ГБ

В этой теме нет новых непрочитанных сообщений. Поворот не туда 4: Кровавое начало / Wrong Turn 4: Bloody Beginnings [ужасы, 2011] BDRip 720p, Dub [iPad] [Лицензия]

salma3

12 | 4

2.01 ГБ

В этой теме нет новых непрочитанных сообщений. Поворот не туда / Wrong Turn [ужасы, 2003] BDRip-AVC, Dub

salma3

99 | 23

744.01 МБ

В этой теме нет новых непрочитанных сообщений. Поворот не туда 6 / Wrong Turn 6: Last Resort [ужасы, 2014] BDRip-AVC, Mvo

salma3

33 | 20

742.62 МБ

В этой теме нет новых непрочитанных сообщений. Поворот не туда 3 / Wrong Turn 3: Left for Dead [ужасы, 2009] BDRip-AVC, Mvo

salma3

69 | 31

742.84 МБ


Начать новую тему Ответить на тему  [ 1 сообщение ] 




Для Мосгорсуда, Роскомнадзора и рекламодателей:: mosgorsud-torrent[собачка]yandex.ru
cron