Торрент файл
скачать торрент магнет ссылка Добавлен: 03 апр 2017, 10:11
Размер: 1.73 ГБ
Сидеров: 0
Личеров: 0
Автор

СообщениеДобавлено: 03 апр 2017, 10:11 

Не в сети
Супермодератор
Аватара пользователя
Дата регистрации:
15 фев 2012, 16:44
Возраст: 28
Спасибо: 7226 / 2147
Сообщения: 68191
Страна: США
Жанр: ужасы, боевик, триллер
Возраст: 18+
Режиссер: Маркус Данстэн
В ролях: Джош Стюарт, Эмма Фитцпатрик, Кристофер МакДональд, Ли Тергесен, Тим Гриффин, Андре Ройо, Рэндолл Арчер, Шеннон Кэйн, Брэндон, Молале, Эрин Вэй
Описание: Бывалому медвежатнику Аркину чудесным образом удалось выбраться из ловушек, расставленных по дому загадочным маньяком Коллекционером. Аркин был уверен, что он никогда в жизни больше не встретится с Коллекциoнером, но cудьба распоряжается иначе.

Продолжительность: 01:21:38
Перевод: Дублированный [Rus Transfer]
Оригинальная дорожка: есть
Автор рипа:
Качество видео: BDRip 720p Исходник: Blu-Ray Remux (1080p) Формат: mp4
Видео кодек: MPEG-4 AVC Аудио кодек: AAC
Видео: 1280x536 (2.40:1) at 24.000 fps, AVC at 2 770 kbps avg, 0.168 bit/pixel
Аудио №1 Rus: 48.0 KHz, AAC, 2 ch, 128.0 Kbps
Аудио №2 Eng: 48.0 KHz, AAC, 2 ch, 128.0 Kbps
Субтитры: нет
Навигация по главам: есть
Размер: 1.73 GiB
avs [info]: 1280x536p 1:1 @ 24/1 fps (cfr)
x264 [info]: using SAR=1/1
x264 [info]: using cpu capabilities: MMX2 SSE2Fast SSSE3 Cache64
x264 [info]: profile High, level 4.1
x264 [info]: frame I:916 Avg QP:15.56 size: 84683
x264 [info]: frame P:25333 Avg QP:19.72 size: 25461
x264 [info]: frame B:91316 Avg QP:20.57 size: 10663
x264 [info]: consecutive B-frames: 3.1% 2.9% 7.8% 16.7% 13.6% 39.5% 5.1% 1.2% 1.7% 1.4% 1.5% 0.7% 1.4% 1.4% 0.5% 0.5% 1.1%
x264 [info]: mb I I16..4: 10.0% 73.8% 16.2%
x264 [info]: mb P I16..4: 2.8% 20.3% 1.6% P16..4: 35.8% 15.8% 9.1% 0.0% 0.0% skip:14.5%
x264 [info]: mb B I16..4: 0.2% 2.1% 0.2% B16..8: 39.7% 7.5% 1.5% direct: 6.9% skip:41.9% L0:44.8% L1:50.0% BI: 5.2%
x264 [info]: 8x8 transform intra:81.4% inter:74.7%
x264 [info]: coded y,uvDC,uvAC intra: 75.0% 76.4% 53.3% inter: 23.3% 27.6% 5.4%
x264 [info]: i16 v,h,dc,p: 34% 17% 9% 40%
x264 [info]: i8 v,h,dc,ddl,ddr,vr,hd,vl,hu: 20% 12% 28% 5% 7% 8% 7% 7% 7%
x264 [info]: i4 v,h,dc,ddl,ddr,vr,hd,vl,hu: 25% 15% 13% 6% 10% 10% 8% 7% 6%
x264 [info]: i8c dc,h,v,p: 54% 17% 21% 9%
x264 [info]: Weighted P-Frames: Y:6.4% UV:4.6%
x264 [info]: ref P L0: 48.0% 9.7% 17.1% 6.5% 5.0% 3.6% 3.0% 1.7% 1.5% 1.3% 1.2% 1.2% 0.3% 0.0%
x264 [info]: ref B L0: 73.7% 11.8% 5.6% 2.7% 1.8% 1.4% 1.1% 0.7% 0.6% 0.4% 0.2%
x264 [info]: ref B L1: 92.0% 8.0%
x264 [info]: kb/s:2770.19
encoded 117565 frames, 1.73 fps, 2770.19 kb/s

General
Format : MPEG-4
Format profile : Base Media
Codec ID : isom (isom)
File size : 1.73 GiB
Duration : 1 h 21 min
Overall bit rate mode : Variable
Overall bit rate : 3 037 kb/s
Movie name : Коллекционер 2 | KinoGadget
Performer : Маркус Данстэн
Director : Маркус Данстэн
Actor : Джош Стюарт / Эмма Фитцпатрик / Кристофер МакДональд / Ли Тергесен / Тим Гриффин / Андре Ройо / Рэндолл Арчер / Шеннон Кэйн / Брэндон / Молале / Эрин Вэй
Screenplay by : Патрик Мелтон / Маркус Данстэн
Producer : Бретт Форбс / Джули Ричардсон / Патрик Риззотти
Genre : Horror
ContentType : Short Film
Recorded date : 2012
Encoded date : UTC 2017-02-02 15:48:38
Tagged date : UTC 2017-02-02 15:55:44
Cover : Yes
ContentRating : mpaa|R|400|
LongDeion : Бывалому медвежатнику Аркину чудесным образом удалось выбраться из ловушек, расставленных по дому загадочным маньяком Коллекционером. Аркин был уверен, что он никогда в жизни больше не встретится с Коллекциoнером, но cудьба распоряжается иначе.
HDVideo : Yes
Video
ID : 1
Format : AVC
Format/Info : Advanced Video Codec
Format profile : High@L4.1
Format settings, CABAC : Yes
Format settings, ReFrames : 12 frames
Codec ID : avc1
Codec ID/Info : Advanced Video Coding
Duration : 1 h 21 min
Bit rate : 2 770 kb/s
Maximum bit rate : 22.6 Mb/s
Width : 1 280 pixels
Height : 536 pixels
Display aspect ratio : 2.40:1
Frame rate mode : Constant
Frame rate : 24.000 FPS
Color space : YUV
Chroma subsampling : 4:2:0
Bit depth : 8 bits
Scan type : Progressive
Bits/(Pixel*Frame) : 0.168
Stream size : 1.58 GiB (91%)
Writing library : x264 core 148 r2638 7599210
Encoding settings : cabac=1 / ref=12 / deblock=1:-1:-1 / analyse=0x3:0x113 / me=umh / subme=7 / psy=1 / psy_rd=1.00:0.15 / mixed_ref=1 / me_range=32 / chroma_me=1 / trellis=2 / 8x8dct=1 / cqm=0 / deadzone=21,11 / fast_pskip=1 / chroma_qp_offset=-3 / threads=3 / lookahead_threads=1 / sliced_threads=0 / nr=0 / decimate=1 / interlaced=0 / bluray_compat=0 / constrained_intra=0 / bframes=16 / b_pyramid=2 / b_adapt=2 / b_bias=0 / direct=1 / weightb=1 / open_gop=0 / weightp=2 / keyint=240 / keyint_min=24 / scenecut=40 / intra_refresh=0 / rc_lookahead=40 / rc=crf / mbtree=1 / crf=19.5 / qcomp=0.60 / qpmin=0 / qpmax=69 / qpstep=4 / vbv_maxrate=62500 / vbv_bufsize=78125 / crf_max=0.0 / nal_hrd=none / filler=0 / ip_ratio=1.40 / aq=1:1.00
Encoded date : UTC 2017-02-02 14:37:38
Tagged date : UTC 2017-02-02 15:49:27
Audio #1
ID : 2
Format : AAC
Format/Info : Advanced Audio Codec
Format profile : LC
Codec ID : 40
Duration : 1 h 21 min
Bit rate mode : Variable
Bit rate : 128 kb/s
Maximum bit rate : 135 kb/s
Channel(s) : 2 channels
Channel positions : Front: L R
Sampling rate : 48.0 kHz
Frame rate : 46.875 FPS (1024 spf)
Compression mode : Lossy
Stream size : 74.7 MiB (4%)
Title : Dub [license]
Language : Russian
Encoded date : UTC 2017-02-02 14:43:32
Tagged date : UTC 2017-02-02 15:49:27
Audio #2
ID : 3
Format : AAC
Format/Info : Advanced Audio Codec
Format profile : LC
Codec ID : 40
Duration : 1 h 21 min
Bit rate mode : Variable
Bit rate : 128 kb/s
Maximum bit rate : 135 kb/s
Channel(s) : 2 channels
Channel positions : Front: L R
Sampling rate : 48.0 kHz
Frame rate : 46.875 FPS (1024 spf)
Compression mode : Lossy
Stream size : 74.7 MiB (4%)
Language : English
Encoded date : UTC 2017-02-02 14:53:17
Tagged date : UTC 2017-02-02 15:49:27
Menu




_________________
Проголосуй за трекер Открытый торрент трекер - RUS-MEDIA.ORG

Проголосуй Открытый торрент трекер - RUS-MEDIA.ORG


Вернуться к началу
 Профиль Отправить личное сообщение  
 
   Похожие торренты   Автор   Торрент   Размер 
В этой теме нет новых непрочитанных сообщений. Коллекционер / The Collector [ужасы, триллер, 2009] BDRip 720p, Dub [iPad]

salma3

0 | 0

1.9 ГБ

В этой теме нет новых непрочитанных сообщений. Коллекционер 2 / The Collection [ужасы, боевик, триллер, 2012] BDRemux 1080p, Dub

salma3

0 | 0

17.75 ГБ

В этой теме нет новых непрочитанных сообщений. Фредди против Джейсона / Freddy vs. Jason [ужасы, боевик, триллер, 2003] BDRip 720p, Dub [iPad]

salma3

0 | 0

2.49 ГБ

В этой теме нет новых непрочитанных сообщений. Бугимен 2 / Boogeyman 2 [ужасы, триллер, драма, 2007] BDRip 720p, Dub [iPad]

salma3

0 | 0

1.67 ГБ

В этой теме нет новых непрочитанных сообщений. Остановка / Rest Stop [ужасы, триллер, 2006] BDRip 720p, Dvo [iPad]

salma3

34 | 6

2.01 ГБ

В этой теме нет новых непрочитанных сообщений. Клетка / The Cell [ужасы, фантастика, триллер, 2000] BDRip 720p, Dub [iPad]

salma3

13 | 2

2.27 ГБ

В этой теме нет новых непрочитанных сообщений. Поворот не туда 5: Кровное родство / Wrong Turn 5: Bloodlines [ужасы, 2012] BDRip 720p, Dub [iPad] [Лицензия]

salma3

7 | 1

1.78 ГБ


Начать новую тему Ответить на тему  [ 1 сообщение ] 




Для Мосгорсуда, Роскомнадзора и рекламодателей:: mosgorsud-torrent[собачка]yandex.ru
cron