Торрент файл
скачать торрент магнет ссылка Добавлен: 30 мар 2017, 11:22
Размер: 1.14 ГБ
Сидеров: 59
Личеров: 15
Автор

СообщениеДобавлено: 30 мар 2017, 11:22 

Не в сети
Супермодератор
Аватара пользователя
Дата регистрации:
15 фев 2012, 16:44
Возраст: 33
Спасибо: 8328 / 2148
Сообщения: 97250
Страна: США
Жанр: ужасы, боевик
Возраст: 18+
Режиссер: Анна Ферстер
В ролях: Кейт Бекинсейл, Тео Джеймс, Лара Пулвер, Чарльз Дэнс, Тобайас Мензис, Брэдли Джеймс, Алисия Вела-Бэйли, Трент Гарретт, Дэйзи Хэд, Джеймс Фолкнер, Оливер Старк
Описание: Воительница-вампир Селена вступает в свой последний и решающий бой между оборотнями и кланом вампиров, который её предал.
Продолжительность: 01:31:32
Перевод: Дублированный [Лицензия]
Оригинальная дорожка: есть
Автор рипа:
Качество видео: BDRip 720p Исходник: Blu-Ray Remux (1080p) Формат: mp4
Видео кодек: MPEG-4 AVC Аудио кодек: AAC
Видео: 1280x534 (2.40:1) at 23.976 fps, AVC at 1 518 kbps avg, 0.093 bit/pixel
Аудио №1 Rus: 48.0 KHz, AAC, 2 ch, 128.0 Kbps
Аудио №2 Eng: 48.0 KHz, AAC, 2 ch, 128.0 Kbps
Субтитры: русские (полные), английские (полные)
Навигация по главам: есть
Размер: 1.14 GiB
avs [info]: 1280x534p 1:1 @ 24000/1001 fps (cfr)
x264 [info]: using SAR=1/1
x264 [info]: using cpu capabilities: MMX2 SSE2Fast SSSE3 Cache64
x264 [info]: profile High, level 4.1
x264 [info]: frame I:1568 Avg QP:11.58 size: 65930
x264 [info]: frame P:30898 Avg QP:15.05 size: 15490
x264 [info]: frame B:99222 Avg QP:16.77 size: 4637
x264 [info]: consecutive B-frames: 3.0% 3.0% 9.4% 38.8% 11.6% 16.6% 5.2% 11.6% 0.9%
x264 [info]: mb I I16..4: 9.7% 57.7% 32.6%
x264 [info]: mb P I16..4: 3.0% 8.3% 2.0% P16..4: 41.7% 18.3% 11.8% 0.0% 0.0% skip:14.9%
x264 [info]: mb B I16..4: 0.3% 0.5% 0.1% B16..8: 38.3% 5.3% 0.9% direct: 3.9% skip:50.7% L0:44.8% L1:50.4% BI: 4.8%
x264 [info]: 8x8 transform intra:60.6% inter:61.3%
x264 [info]: coded y,uvDC,uvAC intra: 54.0% 75.6% 53.4% inter: 9.2% 18.1% 2.8%
x264 [info]: i16 v,h,dc,p: 49% 16% 8% 28%
x264 [info]: i8 v,h,dc,ddl,ddr,vr,hd,vl,hu: 21% 14% 27% 5% 7% 7% 7% 6% 6%
x264 [info]: i4 v,h,dc,ddl,ddr,vr,hd,vl,hu: 37% 15% 26% 4% 5% 4% 4% 3% 2%
x264 [info]: i8c dc,h,v,p: 54% 19% 20% 7%
x264 [info]: Weighted P-Frames: Y:7.0% UV:3.7%
x264 [info]: ref P L0: 52.2% 4.8% 16.0% 8.3% 5.2% 5.1% 3.5% 2.5% 2.0% 0.4% 0.0%
x264 [info]: ref B L0: 77.0% 10.1% 5.6% 2.4% 2.0% 1.6% 1.1% 0.3%
x264 [info]: ref B L1: 92.4% 7.6%
x264 [info]: kb/s:1517.75
encoded 131688 frames, 2.83 fps, 1517.75 kb/s

General
Complete name : ...Drugoj_mir_vojny_krovi_2016_KinoGadget.mp4
Format : MPEG-4
Format profile : Base Media
Codec ID : isom (isom)
File size : 1.14 GiB
Duration : 1 h 31 min
Overall bit rate mode : Variable
Overall bit rate : 1 786 kb/s
Movie name : Другой мир: Войны крови | KinoGadget
Performer : Анна Ферстер
Director : Анна Ферстер
Actor : Кейт Бекинсейл / Тео Джеймс / Лара Пулвер / Чарльз Дэнс / Тобайас Мензис / Брэдли Джеймс / Алисия Вела-Бэйли / Трент Гарретт / Дэйзи Хэд / Джеймс Фолкнер / Оливер Старк
Screenplay by : Кори Гудман / Кайл Уорд / Кевин Гревье
Producer : Дэвид Керн / Гари Лучези / Том Розенберг
Genre : Action, Horror
ContentType : Short Film
Recorded date : 2016
Encoded date : UTC 2017-03-29 05:33:08
Tagged date : UTC 2017-03-29 06:18:51
Cover : Yes
ContentRating : mpaa|R|400|
LongDeion : Воительница-вампир Селена вступает в свой последний и решающий бой между оборотнями и кланом вампиров, который её предал.
HDVideo : Yes
Video
ID : 1
Format : AVC
Format/Info : Advanced Video Codec
Format profile : High@L4.1
Format settings, CABAC : Yes
Format settings, ReFrames : 9 frames
Codec ID : avc1
Codec ID/Info : Advanced Video Coding
Duration : 1 h 31 min
Bit rate : 1 518 kb/s
Maximum bit rate : 10.5 Mb/s
Width : 1 280 pixels
Height : 534 pixels
Display aspect ratio : 2.40:1
Frame rate mode : Constant
Frame rate : 23.976 (24000/1001) FPS
Color space : YUV
Chroma subsampling : 4:2:0
Bit depth : 8 bits
Scan type : Progressive
Bits/(Pixel*Frame) : 0.093
Stream size : 994 MiB (85%)
Writing library : x264 core 148 r2638 7599210
Encoding settings : cabac=1 / ref=9 / deblock=1:-2:-1 / analyse=0x3:0x113 / me=umh / subme=7 / psy=1 / psy_rd=1.00:0.00 / mixed_ref=1 / me_range=32 / chroma_me=1 / trellis=2 / 8x8dct=1 / cqm=0 / deadzone=21,11 / fast_pskip=0 / chroma_qp_offset=-2 / threads=3 / lookahead_threads=1 / sliced_threads=0 / nr=0 / decimate=1 / interlaced=0 / bluray_compat=0 / constrained_intra=0 / bframes=8 / b_pyramid=2 / b_adapt=2 / b_bias=0 / direct=1 / weightb=1 / open_gop=0 / weightp=2 / keyint=250 / keyint_min=25 / scenecut=40 / intra_refresh=0 / rc_lookahead=60 / rc=crf / mbtree=1 / crf=17.0 / qcomp=0.60 / qpmin=0 / qpmax=69 / qpstep=4 / vbv_maxrate=62500 / vbv_bufsize=78125 / crf_max=0.0 / nal_hrd=none / filler=0 / ip_ratio=1.40 / aq=1:1.00
Encoded date : UTC 2017-03-28 21:29:40
Tagged date : UTC 2017-03-29 05:34:06
Audio #1
ID : 2
Format : AAC
Format/Info : Advanced Audio Codec
Format profile : LC
Codec ID : 40
Duration : 1 h 31 min
Bit rate mode : Variable
Bit rate : 128 kb/s
Maximum bit rate : 135 kb/s
Channel(s) : 2 channels
Channel positions : Front: L R
Sampling rate : 48.0 kHz
Frame rate : 46.875 FPS (1024 spf)
Compression mode : Lossy
Stream size : 83.8 MiB (7%)
Title : Dub [License]
Language : Russian
Encoded date : UTC 2017-03-28 21:37:40
Tagged date : UTC 2017-03-29 05:34:06
Audio #2
ID : 3
Format : AAC
Format/Info : Advanced Audio Codec
Format profile : LC
Codec ID : 40
Duration : 1 h 31 min
Bit rate mode : Variable
Bit rate : 128 kb/s
Maximum bit rate : 135 kb/s
Channel(s) : 2 channels
Channel positions : Front: L R
Sampling rate : 48.0 kHz
Frame rate : 46.875 FPS (1024 spf)
Compression mode : Lossy
Stream size : 83.8 MiB (7%)
Title : Original
Language : English
Encoded date : UTC 2017-03-28 21:49:27
Tagged date : UTC 2017-03-29 05:34:06
Text #1
ID : 4
Format : Timed Text
Codec ID : tx3g
Duration : 1 h 31 min
Bit rate mode : Variable
Bit rate : 77 b/s
Stream size : 51.6 KiB (0%)
Title : Full
Language : Russian
Forced : No
Encoded date : UTC 2017-03-29 05:34:06
Tagged date : UTC 2017-03-29 05:34:06
Text #2
ID : 5
Format : Timed Text
Codec ID : tx3g
Duration : 1 h 31 min
Bit rate mode : Variable
Bit rate : 48 b/s
Stream size : 32.4 KiB (0%)
Title : Full
Language : English
Forced : No
Encoded date : UTC 2017-03-29 05:34:06
Tagged date : UTC 2017-03-29 05:34:06
Menu
00:00:00.000 : 00:00:00.000
00:04:30.479 : 00:04:30.479
00:09:25.315 : 00:09:25.315
00:13:59.964 : 00:13:59.964
00:18:56.010 : 00:18:56.010
00:24:27.091 : 00:24:27.091
00:31:15.957 : 00:31:15.957
00:36:26.810 : 00:36:26.810
00:42:17.034 : 00:42:17.034
00:47:37.646 : 00:47:37.646
00:52:22.181 : 00:52:22.181
00:58:59.327 : 00:58:59.327
01:04:31.659 : 01:04:31.659
01:08:52.128 : 01:08:52.128
01:13:47.131 : 01:13:47.131
01:20:08.512 : 01:20:08.512




_________________
Проголосуй за трекер Открытый торрент трекер - RUS-MEDIA.ORG

Проголосуй Открытый торрент трекер - RUS-MEDIA.ORG


Вернуться к началу
 Профиль Отправить личное сообщение  
 
   Похожие торренты   Автор   Торрент   Размер 
В этой теме нет новых непрочитанных сообщений. Книги крови / Books of Blood [Ужасы, фантастика, 2020] WEB-DL 1080p, Mvo

salma3

456 | 14

2.97 ГБ

В этой теме нет новых непрочитанных сообщений. Охота / The Hunt [ужасы, боевик, триллер, 2020] BDRip 720p, Dub [Лицензия]

salma3

0 | 0

5.33 ГБ

В этой теме нет новых непрочитанных сообщений. Wicked - Другой мир / Underworld (2013) DVDRip

zorgi

46 | 19

1.37 ГБ

В этой теме нет новых непрочитанных сообщений. Призраки войны / Ghosts of War [Ужасы, триллер, военный, 2020] BDRip, Dub [iTunes]

salma3

1 | 0

1.46 ГБ

В этой теме нет новых непрочитанных сообщений. Охота / The Hunt [ужасы, боевик, триллер, 2020] BDRip 1080p, Dub [Лицензия]

salma3

7 | 1

8.66 ГБ

В этой теме нет новых непрочитанных сообщений. Огненное кольцо 2: Огонь и сталь / Ring of Fire II: Blood and Steel [боевик, драма, спорт, 1993] WEB-DL 720p, Dub

salma3

3 | 0

4.16 ГБ

В этой теме нет новых непрочитанных сообщений. Судная ночь навсегда / The Forever Purge [Ужасы, боевик, триллер, 2021] BDRip 720p, dub [iTunes]

salma3

1 | 2

3.72 ГБ


Начать новую тему Ответить на тему  [ 1 сообщение ] 




Для Мосгорсуда, Роскомнадзора и рекламодателей:: rstracker[собака]yandex.ru
cron