Торрент файл
скачать торрент магнет ссылка Добавлен: 27 мар 2017, 11:24
Размер: 1.42 ГБ
Сидеров: 0
Личеров: 0
Автор

СообщениеДобавлено: 27 мар 2017, 11:24 

В сети
Супермодератор
Аватара пользователя
Дата регистрации:
15 фев 2012, 16:44
Возраст: 28
Спасибо: 6474 / 2129
Сообщения: 41034
Страна: Великобритания, США
Жанр: ужасы, фэнтези, драма
Возраст: 18+
Режиссер: Мэтт Ривз
В ролях: Коди Смит-МакФи, Хлоя Грейс Морец, Ричард Дженкинс, Кара Буоно, Элиас Котеас, Александра Баррези, Дилан Кенин, Крис Браунинг, Ричи Костер, Дилан Миннетт, Джимми ’Джекс’ Пинчак, Николай Дориан, Ребека Уиггинс, Сет Эдкинс, Бретт ДельБуоно, Гвендолин Эппл
Описание Впусти меня. Сага (2010): Сюжет фильма происходит в небольшом снежном городке, недалеко от Нью-Мехико. В этом городе живет мальчик-изгой по имени Оуэн. По соседству с ним селится новая соседка по имени Эбби. В скором времени он знакомится с ней и влюбляется в нее, но 12-летний мальчик даже не подозревает, что эта девочка окажется страшным созданием...
Продолжительность: 01:55:47
Перевод: Дублированный
Оригинальная дорожка: есть
Автор рипа:
Качество видео: BDRip720p Исходник: Blu-Ray Remux (1080p) Формат: mp4
Видео кодек: MPEG-4 AVC Аудио кодек: AAC
Видео: 1280x534 (2.40:1) at 23.976 fps, AVC at 1 487 kbps avg, 0.091 bit/pixel
Аудио №1 Rus: 48.0 KHz, AAC, 2 ch, 128.0 Kbps
Аудио №2 Eng: 48.0 KHz, AAC, 2 ch, 128.0 Kbps
Субтитры: русские (полные), английские (полные)
Навигация по главам: есть
Размер: 1.42 GiB
avs [info]: 1280x534p 1:1 @ 24000/1001 fps (cfr)
x264 [info]: using SAR=1/1
x264 [info]: using cpu capabilities: MMX2 SSE2Fast SSSE3 Cache64
x264 [info]: profile High, level 4.1
x264 [info]: frame I:1018 Avg QP:13.37 size: 76445
x264 [info]: frame P:28198 Avg QP:16.68 size: 19042
x264 [info]: frame B:137368 Avg QP:18.92 size: 4923
x264 [info]: consecutive B-frames: 1.2% 1.0% 2.0% 10.3% 11.0% 36.3% 9.2% 12.6% 4.1% 1.9% 2.3% 4.6% 1.8% 1.1% 0.8%
x264 [info]: mb I I16..4: 12.9% 67.7% 19.5%
x264 [info]: mb P I16..4: 1.2% 3.7% 0.5% P16..4: 47.3% 22.1% 15.9% 0.0% 0.0% skip: 9.2%
x264 [info]: mb B I16..4: 0.0% 0.2% 0.0% B16..8: 41.7% 6.0% 1.2% direct: 2.2% skip:48.6% L0:47.6% L1:49.2% BI: 3.2%
x264 [info]: 8x8 transform intra:69.3% inter:62.0%
x264 [info]: coded y,uvDC,uvAC intra: 76.3% 72.2% 46.9% inter: 11.9% 9.5% 0.9%
x264 [info]: i16 v,h,dc,p: 30% 14% 15% 41%
x264 [info]: i8 v,h,dc,ddl,ddr,vr,hd,vl,hu: 12% 7% 7% 10% 15% 13% 13% 11% 11%
x264 [info]: i4 v,h,dc,ddl,ddr,vr,hd,vl,hu: 9% 5% 5% 14% 16% 13% 13% 11% 13%
x264 [info]: i8c dc,h,v,p: 33% 30% 20% 17%
x264 [info]: Weighted P-Frames: Y:5.9% UV:3.7%
x264 [info]: ref P L0: 42.6% 6.0% 18.9% 8.9% 7.0% 5.8% 5.0% 2.8% 2.7% 0.3% 0.0%
x264 [info]: ref B L0: 61.9% 15.3% 9.2% 4.7% 3.6% 3.1% 1.7% 0.5%
x264 [info]: ref B L1: 88.1% 11.9%
x264 [info]: kb/s:1486.58
encoded 166584 frames, 1.74 fps, 1486.58 kb/s

General
Complete name : .../Vpusti_menya_saga_2010_KinoGadget.mp4
Format : MPEG-4
Format profile : Base Media
Codec ID : isom (isom)
File size : 1.42 GiB
Duration : 1 h 55 min
Overall bit rate mode : Variable
Overall bit rate : 1 754 kb/s
Movie name : Впусти меня. Сага
Performer : Мэтт Ривз
Director : Мэтт Ривз
Actor : Коди Смит-МакФи / Хлоя Грейс Морец / Ричард Дженкинс / Кара Буоно / Элиас Котеас / Александра Баррези / Дилан Кенин / Крис Браунинг / Ричи Костер / Дилан Миннетт / Джимми ’Джекс’ Пинчак / Николай Дориан / Ребека Уиггинс / Сет Эдкинс / Бретт ДельБуоно / Гвендолин Эппл
Screenplay by : Юн Айвиде Линдквист / Мэтт Ривз
Producer : Тобин Армруст / Гай Ист / Донна Джильотти
Genre : Drama, Horror, Mystery
ContentType : Short Film
Recorded date : 2010
Encoded date : UTC 2017-02-28 07:31:55
Tagged date : UTC 2017-03-01 06:29:29
Cover : Yes
ContentRating : mpaa|R|400|
LongDeion : Действие фильма развивается в заснеженном пригороде Нью-Мехико, где живет 12-летний мальчик-изгой Оуэн. Однажды в сумерках Оуэн знакомится со своей новой соседкой Эбби, но он даже не догадывается, что его первая любовь, невинная соседская девчонка, на самом деле — вампирша…
HDVideo : Yes
Video
ID : 1
Format : AVC
Format/Info : Advanced Video Codec
Format profile : High@L4.1
Format settings, CABAC : Yes
Format settings, ReFrames : 9 frames
Codec ID : avc1
Codec ID/Info : Advanced Video Coding
Duration : 1 h 55 min
Bit rate : 1 487 kb/s
Maximum bit rate : 11.1 Mb/s
Width : 1 280 pixels
Height : 534 pixels
Display aspect ratio : 2.40:1
Frame rate mode : Constant
Frame rate : 23.976 (24000/1001) FPS
Color space : YUV
Chroma subsampling : 4:2:0
Bit depth : 8 bits
Scan type : Progressive
Bits/(Pixel*Frame) : 0.091
Stream size : 1.20 GiB (85%)
Writing library : x264 core 148 r2638 7599210
Encoding settings : cabac=1 / ref=9 / deblock=1:-1:-1 / analyse=0x3:0x113 / me=umh / subme=9 / psy=1 / psy_rd=1.00:0.00 / mixed_ref=1 / me_range=32 / chroma_me=1 / trellis=2 / 8x8dct=1 / cqm=0 / deadzone=21,11 / fast_pskip=0 / chroma_qp_offset=-2 / threads=3 / lookahead_threads=1 / sliced_threads=0 / nr=0 / decimate=1 / interlaced=0 / bluray_compat=0 / constrained_intra=0 / bframes=14 / b_pyramid=2 / b_adapt=2 / b_bias=0 / direct=1 / weightb=1 / open_gop=0 / weightp=2 / keyint=250 / keyint_min=25 / scenecut=40 / intra_refresh=0 / rc_lookahead=60 / rc=crf / mbtree=1 / crf=18.0 / qcomp=0.60 / qpmin=0 / qpmax=69 / qpstep=4 / vbv_maxrate=62500 / vbv_bufsize=78125 / crf_max=0.0 / nal_hrd=none / filler=0 / ip_ratio=1.40 / aq=1:1.00
Encoded date : UTC 2017-02-27 17:06:16
Tagged date : UTC 2017-02-28 07:32:24
Audio #1
ID : 2
Format : AAC
Format/Info : Advanced Audio Codec
Format profile : LC
Codec ID : 40
Duration : 1 h 55 min
Bit rate mode : Variable
Bit rate : 128 kb/s
Maximum bit rate : 135 kb/s
Channel(s) : 2 channels
Channel positions : Front: L R
Sampling rate : 48.0 kHz
Frame rate : 46.875 FPS (1024 spf)
Compression mode : Lossy
Stream size : 106 MiB (7%)
Title : Dub
Language : Russian
Encoded date : UTC 2017-02-27 17:09:56
Tagged date : UTC 2017-02-28 07:32:24
Audio #2
ID : 3
Format : AAC
Format/Info : Advanced Audio Codec
Format profile : LC
Codec ID : 40
Duration : 1 h 55 min
Bit rate mode : Variable
Bit rate : 128 kb/s
Maximum bit rate : 135 kb/s
Channel(s) : 2 channels
Channel positions : Front: L R
Sampling rate : 48.0 kHz
Frame rate : 46.875 FPS (1024 spf)
Compression mode : Lossy
Stream size : 106 MiB (7%)
Title : Original
Language : English
Encoded date : UTC 2017-02-27 17:18:12
Tagged date : UTC 2017-02-28 07:32:24
Text #1
ID : 4
Format : Timed Text
Codec ID : tx3g
Duration : 1 h 48 min
Bit rate mode : Variable
Bit rate : 34 b/s
Stream size : 26.7 KiB (0%)
Title : Full
Language : Russian
Forced : No
Encoded date : UTC 2017-02-28 07:32:24
Tagged date : UTC 2017-02-28 07:32:24
Text #2
ID : 5
Format : Timed Text
Codec ID : tx3g
Duration : 1 h 48 min
Bit rate mode : Variable
Bit rate : 29 b/s
Stream size : 23.4 KiB (0%)
Title : Full
Language : English
Forced : No
Encoded date : UTC 2017-02-28 07:32:24
Tagged date : UTC 2017-02-28 07:32:24
Menu




_________________
Проголосуй за трекер Открытый торрент трекер - RUS-MEDIA.ORG

Проголосуй Открытый торрент трекер - RUS-MEDIA.ORG



реклама партнёра


Вернуться к началу
 Профиль Отправить личное сообщение  
 
   Похожие торренты   Автор   Торрент   Размер 
В этой теме нет новых непрочитанных сообщений. Бугимен 2 / Boogeyman 2 [ужасы, триллер, драма, 2007] BDRip 720p, Dub [iPad]

salma3

0 | 0

1.67 ГБ

В этой теме нет новых непрочитанных сообщений. Бугимен / Boogeyman [ужасы, триллер, драма, детектив, 2005] BDRip 720p, Dub [iPad]

salma3

0 | 0

2.12 ГБ

В этой теме нет новых непрочитанных сообщений. Новая эра Z / The Girl with All the Gifts [ужасы, триллер, драма, 2016] BDRip 720p, Dub [iPad] [Лицензия]

salma3

0 | 0

2.14 ГБ

В этой теме нет новых непрочитанных сообщений. Третий лишний / Ted [фэнтези, комедия, 2012] BDRip 720p, Dub [iPad] [Лицензия]

salma3

16 | 10

2.67 ГБ

В этой теме нет новых непрочитанных сообщений. Коллекционер / The Collector [ужасы, триллер, 2009] BDRip 720p, Dub [iPad]

salma3

0 | 0

1.9 ГБ

В этой теме нет новых непрочитанных сообщений. Защитники [фантастика, фэнтези, боевик, приключения, 2017] BDRip 720p [iPad] [Лицензия]

salma3

368 | 63

2.08 ГБ

В этой теме нет новых непрочитанных сообщений. Коллекционер 2 / The Collection [ужасы, боевик, триллер, 2012] BDRip 720p, Dub [iPad]

salma3

0 | 0

1.73 ГБ


Начать новую тему Ответить на тему  [ 1 сообщение ] 




Для Мосгорсуда, Роскомнадзора и рекламодателей:: mosgorsud-torrent[собачка]yandex.ru