Торрент файл
скачать торрент магнет ссылка Добавлен: 09 май 2014, 13:47
Размер: 1.87 ГБ
Сидеров: 7
Личеров: 3
Автор

СообщениеДобавлено: 09 май 2014, 13:47 

Не в сети
Супермодератор
Аватара пользователя
Дата регистрации:
15 фев 2012, 16:44
Возраст: 33
Спасибо: 8328 / 2148
Сообщения: 97250
Безопасность не гарантируется / Safety Not Guaranteed (2012) BDRip-AVC | iPad | P


Название: Безопасность не гарантируется
Оригинальное название: Safety Not Guaranteed
Год выхода: 2012
Жанр: фантастика, драма, мелодрама, комедия
Режиссер: Колин Треворроу
В ролях: Обри Пласа, Марк Дюпласс, Джейк Джонсон, Каран Сони, Дженика Бергер, Лорен Карлос, Бейзил Харрис, Мэри Линн Райскаб, Дэвид Шульц, Джефф Гарлин

О фильме:
Троим журналистам поручают взять интервью у парня, который разместил весьма странное объявление о том, что ищет напарника для путешествий во времени.



Страна: США
Студия: Big Beach Films, Duplass Brothers Productions

Продолжительность: 01:25:47
Перевод: Русский профессиональный многоголосый закадровый

Файл
Кодек: H.264
Качество: BDRip [576p]
Видео: 1024x436 (2.35:1) at 23.976 fps, AVC at 2800 kbps
Звук:
1: АAС 2.0 129 kbps - Русский профессиональный многоголосый закадровый
2: АAС 2.0 132 kbps - Английский
Субтитры: отсутствуют

General
Complete name : C:CREATE264mod1outSafety.Not.Guaranteed.2012.576p.P.m4v
Format : MPEG-4
Codec ID : M4V
File size : 1.87 GiB
Duration : 1h 25mn
Overall bit rate mode : Variable
Overall bit rate : 3 126 Kbps
Movie name : Безопасность не гарантируется
Performer : Colin Trevorrow
Genre : Comedy
ContentType : Short Film
Deion : Троим журналистам поручают взять интервью у парня, который разместил весьма странное объявление о том, что ищет напарника для путешествий во времени.
Recorded date : UTC 2012-06-08 07:00:00
Encoded date : UTC 2014-05-08 19:46:09
Tagged date : UTC 2014-05-08 20:15:23
Copyright : Big Beach Films, Duplass Brothers Productions
Cover : Yes
ContentRating : mpaa|R|400|

Title/Sort : Safety Not Guaranteed
LongDeion : Троим журналистам поручают взять интервью у парня, который разместил весьма странное объявление о том, что ищет напарника для путешествий во времени.
AppleStoreCatalogID : 564177453
Vendor : Apple:vendor_id:2012-652297

Video
ID : 1
Format : AVC
Format/Info : Advanced Video Codec
Format profile : High@L4.1
Format settings, CABAC : Yes
Format settings, ReFrames : 12 frames
Codec ID : avc1
Codec ID/Info : Advanced Video Coding
Duration : 1h 25mn
Bit rate : 2 855 Kbps
Maximum bit rate : 25.0 Mbps
Width : 1 024 pixels
Height : 436 pixels
Display aspect ratio : 2.35:1
Frame rate mode : Constant
Frame rate : 23.976 fps
Color space : YUV
Chroma subsampling : 4:2:0
Bit depth : 8 bits
Scan type : Progressive
Bits/(Pixel*Frame) : 0.267
Stream size : 1.71 GiB (91%)
Title : Safety.Not.Guaranteed.2012
Language : English
Encoded date : UTC 2014-05-08 19:46:09
Tagged date : UTC 2014-05-08 19:46:19

Audio #1
ID : 2
Format : AAC
Format/Info : Advanced Audio Codec
Format profile : LC
Codec ID : 40
Duration : 1h 25mn
Bit rate mode : Variable
Bit rate : 127 Kbps
Maximum bit rate : 171 Kbps
Channel(s) : 2 channels
Channel positions : Front: L R
Sampling rate : 48.0 KHz
Compression mode : Lossy
Stream size : 78.2 MiB (4%)
Title : MVO
Language : Russian
Encoded date : UTC 2014-05-08 19:41:17
Tagged date : UTC 2014-05-08 19:46:19

Audio #2
ID : 3
Format : AAC
Format/Info : Advanced Audio Codec
Format profile : LC
Codec ID : 40
Duration : 1h 25mn
Bit rate mode : Variable
Bit rate : 132 Kbps
Maximum bit rate : 173 Kbps
Channel(s) : 2 channels
Channel positions : Front: L R
Sampling rate : 48.0 KHz
Compression mode : Lossy
Stream size : 81.1 MiB (4%)
Language : English
Encoded date : UTC 2014-05-08 19:44:38
Tagged date : UTC 2014-05-08 19:46:19

Menu
ID : 4
Codec ID : text
Duration : 1h 25mn
Encoded date : UTC 2014-05-08 19:46:41
Tagged date : UTC 2014-05-08 19:46:41
Bit rate mode : CBR

x264 [info]: frame I:1105 Avg QP:15.30 size: 83160
x264 [info]: frame P:26192 Avg QP:17.79 size: 30501
x264 [info]: frame B:96110 Avg QP:19.69 size: 9845
x264 [info]: consecutive B-frames: 2.3% 2.3% 7.0% 20.3% 18.7% 33.4% 6.9% 3.3% 1.7% 1.6% 0.2% 0.3% 0.2% 0.5% 1.2%
x264 [info]: mb I I16..4: 8.8% 55.3% 35.9%
x264 [info]: mb P I16..4: 0.6% 8.2% 3.8% P16..4: 27.6% 33.7% 15.9% 5.1% 1.1% skip: 3.9%
x264 [info]: mb B I16..4: 0.0% 0.8% 0.7% B16..8: 31.9% 21.6% 3.7% direct: 7.0% skip:34.3% L0:36.5% L1:41.6% BI:21.9%
x264 [info]: 8x8 transform intra:60.2% inter:37.6%
x264 [info]: coded y,uvDC,uvAC intra: 87.5% 85.7% 68.0% inter: 25.7% 18.1% 8.5%
x264 [info]: i16 v,h,dc,p: 9% 16% 10% 64%
x264 [info]: i8 v,h,dc,ddl,ddr,vr,hd,vl,hu: 13% 12% 7% 8% 11% 12% 12% 12% 13%
x264 [info]: i4 v,h,dc,ddl,ddr,vr,hd,vl,hu: 36% 11% 6% 6% 9% 9% 8% 8% 8%
x264 [info]: i8c dc,h,v,p: 34% 27% 21% 18%
x264 [info]: Weighted P-Frames: Y:5.1% UV:3.9%
x264 [info]: ref P L0: 58.0% 10.8% 12.3% 5.4% 3.7% 2.8% 2.2% 1.3% 1.1% 0.9% 0.8% 0.7% 0.1% 0.0%
x264 [info]: ref B L0: 84.8% 6.1% 3.1% 1.6% 1.2% 0.9% 0.8% 0.5% 0.4% 0.3% 0.2%
x264 [info]: ref B L1: 95.1% 4.9%
x264 [info]: kb/s:2855.22

Sort Name: Safety Not Guaranteed
XID: Apple:vendor_id:2012-652297
Content ID: 564177453
Copyright: Big Beach Films, Duplass Brothers Productions
ScreenWriters: Дерек Коннолли
Producers: Дерек Коннолли, Стефани Лэнгофф, Питер Сараф
Director: Колин Треворроу
Cast: Обри Пласа, Марк Дюпласс, Джейк Джонсон, Каран Сони, Дженика Бергер, Лорен Карлос, Бейзил Харрис, Мэри Линн Райскаб, Дэвид Шульц, Джефф Гарлин / Aubrey Plaza (Darius Britt), Mark Duplass (Kenneth Calloway), Jake M. Johnson (Jeff Schwensen), Karan Soni (Arnau), Jenica Bergere (Liz McHollis), Kristen Bell (Belinda), Jeff Garlin (Mr. Britt), Mary Lynn Rajskub (Bridget Bay), William Hall Jr. (Shannon), Tony Doupe (Smith (as Tony Doupé)), Xola Malik (Jones), Kimberly Durham (Linsey), Grace Arends (Darcy), Scott Swan (Halloween), Basil Harris (Restaurant Manager), Tom Ricciardelli (Security Guard), Lynn Shelton (Uptight Mom), Eli Borozan (Kid in Diner), Alice Hung (Shift Manager)
Rating: R
Long Deion: Троим журналистам поручают взять интервью у парня, который разместил весьма странное объявление о том, что ищет напарника для путешествий во времени.
Deion: Троим журналистам поручают взять интервью у парня, который разместил весьма странное объявление о том, что ищет напарника для путешествий во времени.
Release Date: 2012-06-08T07:00:00Z
Genre: Comedy
Artist: Colin Trevorrow
Name: Безопасность не гарантируется



_________________
Проголосуй за трекер Открытый торрент трекер - RUS-MEDIA.ORG

Проголосуй Открытый торрент трекер - RUS-MEDIA.ORG


Вернуться к началу
 Профиль Отправить личное сообщение  
 
   Похожие торренты   Автор   Торрент   Размер 
В этой теме нет новых непрочитанных сообщений. Ох уж эта наука! / Weird Science [комедия, мелодрама, фантастика, 1985] BDRip 1080p, Mvo [Extended Cut=Remastered]

salma3

0 | 0

8.58 ГБ

В этой теме нет новых непрочитанных сообщений. Сидни Уайт / Sydney White [драма, мелодрама, комедия, 2007] BDRip 720p, Mvo

salma3

0 | 0

4.6 ГБ

В этой теме нет новых непрочитанных сообщений. Двойная жизнь / Нон-фикшн / Doubles vies [Драма, мелодрама, комедия, 2018] BDRip, Mvo [iTunes]

salma3

0 | 0

1.46 ГБ

В этой теме нет новых непрочитанных сообщений. Зверинец / Animal House (Джон Лэндис) [1978 г., Комедия, BDRip-AVC] MVO, A

zorgi

1 | 0

2.9 ГБ

В этой теме нет новых непрочитанных сообщений. Пробуждая мертвецов / Waking the Dead [триллер, драма, мелодрама, 2000] WEB-DLRip-AVC, Mvo

salma3

0 | 0

1.36 ГБ

В этой теме нет новых непрочитанных сообщений. Кукольная любовь / Toy Love [драма, мелодрама, комедия, 2002] DVDRip-AVC, Dvo

salma3

0 | 0

1.06 ГБ

В этой теме нет новых непрочитанных сообщений. Озарение / Vibes [мелодрама, комедия, приключения, 1988] BDRip, Mvo

salma3

0 | 0

1.46 ГБ


Начать новую тему Ответить на тему  [ 1 сообщение ] 




Для Мосгорсуда, Роскомнадзора и рекламодателей:: rstracker[собака]yandex.ru
cron