Торрент файл
скачать торрент магнет ссылка Добавлен: 12 янв 2013, 23:56
Размер: 2.25 ГБ
Сидеров: 8
Личеров: 5
Автор

СообщениеДобавлено: 12 янв 2013, 23:56 

Не в сети
Супермодератор
Аватара пользователя
Дата регистрации:
11 апр 2010, 18:10
Спасибо: 6068 / 7
Сообщения: 56660
id="p-25224744-1">Мне бы в небо / Up in the Air«История мужчины, готового ко всем пересадкам.»

Год выпуска: 2009
Страна:США
Жанр: мелодрама, драма
Продолжительность: 01:49:20
Перевод: профессиональный (полное дублирование)
Русские субтитры: есть
Навигация по главам: есть

Режиссер: Джейсон Райтман / Jason Reitman

В ролях: Джордж Клуни, Вера Фармига, Анна Кендрик, Джейсон Бейтман, Эми Мортон, Мелани Лински, Дж.К. Симмонс, Сэм Эллиотт, Дэнни МакБрайд, Зак Галифианакис

Описание:
Райан Бинэм — корпоративный юрист, всё время проводящий в командировках. Образцовый потребитель, он преуспел в корпоративных связях, чем не может похвалиться в личной жизни. Отношения на одну ночь для него просто часть длинного списка с бесчисленными люксами отелей, арендованными автомобилями, электронной почтой и сообщениями на автоответчике. Постоянные разъезды отдалили его от родной семьи, а свою он так и не создал…

Качество: BDRip Исходник: (BD Remux)
Формат: m4v
Видео кодек: H.264
Аудио кодек: AAC
Видео: 1280x696, 2718 Kbps, 23,976 fps
Аудио RUS: 48 kHz, AAC, 2ch, 161kbps - Дубляж
Аудио ENG: 48 kHz, AAC, 2ch, 144kbps - Оригинал
MediaInfo
Код:
Код:
Полное имя : Up In the Air.m4v
Формат : MPEG-4
Идентификатор кодека : M4V
Размер файла : 2,25 Гбайт
Продолжительность : 1 ч. 49 м.
Общий поток : 2949 Кбит/сек
Название фильма : Up In the Air
Исполнитель : Jason Reitman
Жанр : Drama
Дата записи : UTC 2009-12-23 08:00:00
Обложка : Yes
desc : Райан Бингэм — корпоративный юрист, всё время проводящий в командировках. Образцовый потребитель, он преуспел в корпоративных связях, чем не может похвалиться в личной жизни.
ldes : Райан Бингэм — корпоративный юрист, всё время проводящий в командировках. Образцовый потребитель, он преуспел в корпоративных связях, чем не может похвалиться в личной жизни. Отношения на одну ночь для него просто часть длинного списка с бесчисленными люксами отелей, арендованными автомобилями, электронной почтой и сообщениями на автоответчике.
hdvd : 1
stik : 9
cnID : 355559079
xid : iPad:vendor_id:2009-464130
iTunEXTC : mpaa|R|400|
iTunMOVI : / / / / cast / / / name / Джордж Клуни / / / name / Вера Фармига / / / name / Анна Кендрик / / / name / Джейсон Бейтман / / / name / Дэнни МакБрайд / / / name / Мелани Лински / / / name / Джеймс Энтони / / / name / Стив Истин / / / name / Дэйв Энгфер / / / name / Тамала Джонс / / / directors / / / name / Джейсон Райтман / / / producers / / / name / Айвен Райтман / / / name / Джейсон Райтман / / / name / Джеффри Клиффорд / / / screenwriters / / / name / Джейсон Райтман / / / name / Шелдон Тернер / / / name / Уолтер Кирн / / / /
Видео
Идентификатор : 1
Формат : AVC
Формат/Информация : Advanced Video Codec
Профиль формата : High@L4.1
Параметр CABAC формата : Да
Параметр ReFrames формата : 9 кадры
Идентификатор кодека : avc1
Идентификатор кодека/Информация : Advanced Video Coding
Продолжительность : 1 ч. 49 м.
Вид битрейта : Переменный
Битрейт : 2718 Кбит/сек
Максимальный битрейт : 17,3 Мбит/сек
Ширина : 1280 пикс.
Высота : 696 пикс.
Соотношение сторон : 16:9
Режим частоты кадров : Постоянный
Частота кадров : 23,976 кадр/сек
Цветовое пространство : YUV
Подвыборка цветности : 4:2:0
Битовая глубина : 8 бит
Тип развёртки : Прогрессивная
Бит/(Пиксели*Кадры) : 0.127
Размер потока : 2,02 Гбайт (90%)
Заголовок : Up in the Air.2009.
Библиотека кодирования : x264 core 88 r1471 1144615
Настройки программы : cabac=1 / ref=9 / deblock=1:-2:-1 / analyse=0x3:0x133 / me=umh / subme=9 / psy=1 / psy_rd=0.90:0.10 / mixed_ref=1 / me_range=32 / chroma_me=1 / trellis=2 / 8x8dct=1 / cqm=0 / deadzone=21,11 / fast_pskip=0 / chroma_qp_offset=-3 / threads=6 / sliced_threads=0 / nr=0 / decimate=1 / mbaff=0 / constrained_intra=0 / bframes=7 / b_pyramid=2 / b_adapt=2 / b_bias=0 / direct=3 / wpredb=1 / wpredp=2 / keyint=250 / keyint_min=25 / scenecut=40 / intra_refresh=0 / rc_lookahead=110 / rc=2pass / mbtree=1 / bitrate=2718 / ratetol=1.0 / qcomp=0.60 / qpmin=10 / qpmax=51 / qpstep=4 / cplxblur=20.0 / qblur=0.5 / ip_ratio=1.40 / aq=2:0.70
Язык : English
Аудио #1
Идентификатор : 2
Формат : AAC
Формат/Информация : Advanced Audio Codec
Профиль формата : LC
Идентификатор кодека : 40
Продолжительность : 1 ч. 49 м.
Вид битрейта : Переменный
Битрейт : 161 Кбит/сек
Максимальный битрейт : 240 Кбит/сек
Канал(ы) : 2 канала(ов)
Расположение каналов : Front: L R
Частота : 48,0 КГц
Метод сжатия : С потерями
Размер потока : 126 Мбайт (5%)
Заголовок : Russian stereo
Язык : Russian
Аудио #2
Идентификатор : 3
Формат : AAC
Формат/Информация : Advanced Audio Codec
Профиль формата : LC
Идентификатор кодека : 40
Продолжительность : 1 ч. 49 м.
Вид битрейта : Переменный
Битрейт : 144 Кбит/сек
Максимальный битрейт : 218 Кбит/сек
Канал(ы) : 2 канала(ов)
Расположение каналов : Front: L R
Частота : 48,0 КГц
Метод сжатия : С потерями
Размер потока : 111 Мбайт (5%)
Заголовок : English
Язык : English
Текст #1
Идентификатор : 4
Формат : Timed text
Режим смешивания : sbtl
Идентификатор кодека : tx3g
Продолжительность : 1 ч. 49 м.
Вид битрейта : Переменный
Битрейт : 128 бит/сек
Размер потока : 102 Кбайт (0%)
Заголовок : A.Shnaider
Язык : Russian
Текст #2
Идентификатор : 5
Формат : Timed text
Режим смешивания : sbtl
Идентификатор кодека : tx3g
Продолжительность : 1 ч. 46 м.
Вид битрейта : Переменный
Битрейт : 81 бит/сек
Размер потока : 63,3 Кбайт (0%)
Язык : English
Текст #3
Идентификатор : 6
Формат : Apple text
Идентификатор кодека : text
Продолжительность : 1 ч. 49 м.
Вид битрейта : Постоянный
Битрейт : 1 бит/сек
Размер потока : 522 байт (0%)

Скриншоты



Вернуться к началу
 Профиль Отправить личное сообщение  
 
   Похожие торренты   Автор   Торрент   Размер 
В этой теме нет новых непрочитанных сообщений. Воздушная тюрьма / Повітряна тюрма / Повітряна в'язниця / Con Air [боевик, триллер, криминал, 1997] BDRip 720p, Dub [UKR]

salma3

0 | 0

6.37 ГБ

В этой теме нет новых непрочитанных сообщений. Одержимость / Obsessed [триллер, драма, криминал, 2009] BDRip 720p, Mvo

salma3

0 | 0

6.5 ГБ

В этой теме нет новых непрочитанных сообщений. Маскарад / Masquerade [драма, мелодрама, триллер, 1988] BDRip 720p, Dvo

salma3

0 | 0

7.52 ГБ

В этой теме нет новых непрочитанных сообщений. Приятный разговор / Smooth Talk [драма, мелодрама, 1985] BDRip 720p, Avo

salma3

0 | 0

9.43 ГБ

В этой теме нет новых непрочитанных сообщений. Последняя любовь на Земле / Perfect Sense [Драма, мелодрама, 2011] BDRip 720p, Mvo

salma3

0 | 0

4.61 ГБ

В этой теме нет новых непрочитанных сообщений. Сидни Уайт / Sydney White [драма, мелодрама, комедия, 2007] BDRip 720p, Mvo

salma3

0 | 0

4.6 ГБ

В этой теме нет новых непрочитанных сообщений. Анатомия любви / Endless Love [Драма, мелодрама, экранизация, 2014] BDRip 720p, Dub [Лицензия]

salma3

0 | 0

7.31 ГБ


Начать новую тему Ответить на тему  [ 1 сообщение ] 




Для Мосгорсуда, Роскомнадзора и рекламодателей:: rstracker[собака]yandex.ru
cron