Торрент файл
скачать торрент магнет ссылка Добавлен: 12 янв 2013, 23:53
Размер: 2.97 ГБ
Сидеров: 1
Личеров: 3
Автор

СообщениеДобавлено: 12 янв 2013, 23:53 

Не в сети
Супермодератор
Аватара пользователя
Дата регистрации:
11 апр 2010, 18:10
Спасибо: 6068 / 7
Сообщения: 56660
id="p-25224744-1">Зеркала / Mirrors«There Is Evil........On The Other Side»

Страна: США, Германия, Румыния
Жанр: ужасы, триллер, детектив
Год выпуска: 2008
Продолжительность: 01:51:22
Перевод: Профессиональный (полное дублирование)
Cубтитры: есть
Оригинальная аудиодорожка: английский
Режиссер: Александр Ажа
Сценарий: Александр Ажа, Грегори Левассёр, Шон-хо Ким
Продюсер: Грегори Левассёр, Александра Милчэн, Марк Штернберг
В ролях: Кифер Сазерленд /Kiefer Sutherland/, Паула Паттон /Paula Patton/, Камерон Бойс /Cameron Boyce/, Эрика Глюк /Erica Gluck/, Эми Смарт /Amy Smart/, Мэри Бет Пейл /Mary Beth Peil/, Джон Шрэпнел /John Shrapnel/, Джейсон Флеминг /Jason Flemyng/, Тим Ахерн /Tim Ahern/, Джулиан Гловер /Julian Glover/
Описание: Бен Карсон знавал времена и получше. Уже прошел почти год с тех пор как неуравновешенного детектива отстранили от работы в Полицейском управлении г. Нью-Йорка за убийство другого сотрудника спецслужбы, несчастный случай, который не только стоил ему работы, но и пробудил в нем тягу к алкоголю и агрессивность, из-за чего жена и дети отдалились от него, а сам он нашел пристанище на диване в квартире своей сестры в Куинс.
Качество: BDRip
Исходник: BDRip 1080p
Формат: m4v
Видео кодек: H.264
Аудио кодек: AAC
Видео: 1024x432, 3500 Kbps, 23,976 fps
Аудио RUS: 48 kHz, AAC, 2ch, 154 kbps - Профессиональный (полное дублирование)
Аудио ENG: 48 kHz, AAC, 2ch, 151 kbps - Оригинал
MediaInfo
Код:
Код:
Полное имя : E:\рипы4\Mirrors.m4v
Формат : MPEG-4
Профиль формата : Base Media / Version 2
Идентификатор кодека : mp42
Размер файла : 2,97 Гбайт
Продолжительность : 1 ч. 51 м.
Общий поток : 3818 Кбит/сек
Название фильма : Mirrors
Альбом : Зеркала
Исполнитель : Александр Ажа
Жанр : Horror
Дата записи : UTC 2008-08-14 07:00:00
Дата кодирования : UTC 2011-12-25 23:45:26
Дата пометки : UTC 2011-12-27 11:03:22
Программа кодирования : W.
Обложка : Yes
Примечание : Source: BDRip 1080p (1496064)
desc : Бен Карсон знавал времена и получше. Уже прошел почти год с тех пор как неуравновешенного детектива отстранили от работы в Полицейском управлении г. Нью-Йорка за убийство другого сотрудника спецслужбы, несчастный случай, который не только стоил ему р
ldes : Бен Карсон знавал времена и получше. Уже прошел почти год с тех пор как неуравновешенного детектива отстранили от работы в Полицейском управлении г. Нью-Йорка за убийство другого сотрудника спецслужбы, несчастный случай, который не только стоил ему работы, но и пробудил в нем тягу к алкоголю и агрессивность, из-за чего жена и дети отдалились от него, а сам он нашел пристанище на диване в квартире своей сестры в Куинс. / / Потеряв надежду вернуться к нормальной жизни и воссоединиться с семьей, Карсон нанимается на работу ночным сторожем выгоревших руин универмага «Mayflower». То, что когда-то было символом процветания и роскоши, теперь медленно разрушается в темноте, как загнивающий корабль-призрак, разоренный гигантским пожаром, поглотившим множество невинных жизней. / Когда Карсон обходит дозором свои владения, обугленные развалины универмага, он начинает замечать что-то зловещее в декоративных зеркалах, украшающих стены «Mayflower». В огромных мерцающих стеклах отражаются страшные, потрясающие Карсона образы…
hdvd : 1
stik : 9
rtng : 0
cnID : 290934548
xid : iPad:vendor_id:2008-263447
iTunEXTC : mpaa|Unrated|???|
iTunMOVI : / / / / cast / / / name / Кифер Сазерленд / / / name / Паула Паттон / / / name / Камерон Бойс / / / name / Эрика Глюк / / / name / Эми Смарт / / / name / Мэри Бет Пейл / / / name / Джон Шрэпнел / / / name / Джейсон Флеминг / / / name / Тим Ахерн / / / name / Джулиан Гловер / / / directors / / / name / Александр Ажа / / / producers / / / name / Марк С. Фишер / / / name / Эндрю Хонг / / / name / Юн-янг Ким / / / name / Кристофер Ландри / / / name / Грегори Левассёр / / / name / Александра Милчэн / / / name / Арнон Милчэн / / / name / Влад Пэунеску / / / name / Марк Штернберг / / / name / Кифер Сазерленд / / / name / Андрей Зинка / / / screenwriters / / / name / Александр Ажа / / / name / Грегори Левассёр / / / name / Шон-хо Ким / / / /
Видео
Идентификатор : 1
Формат : AVC
Формат/Информация : Advanced Video Codec
Профиль формата : High@L3.1
Параметр CABAC формата : Да
Параметр ReFrames формата : 9 кадры
Идентификатор кодека : avc1
Идентификатор кодека/Информация : Advanced Video Coding
Продолжительность : 1 ч. 51 м.
Вид битрейта : Переменный
Битрейт : 3500 Кбит/сек
Ширина : 1024 пикс.
Высота : 432 пикс.
Соотношение сторон : 2,35:1
Режим частоты кадров : Переменный
Частота кадров : 23,976 кадр/сек
Минимальная частота кадров : 23,810 кадр/сек
Максимальная частота кадров : 1000,000 кадр/сек
Цветовое пространство : YUV
Подвыборка цветности : 4:2:0
Битовая глубина : 8 бит
Тип развёртки : Прогрессивная
Бит/(Пиксели*Кадры) : 0.330
Размер потока : 2,72 Гбайт (91%)
Библиотека кодирования : x264 core 112
Настройки программы : cabac=1 / ref=9 / deblock=1:0:0 / analyse=0x3:0x113 / me=umh / subme=9 / psy=1 / psy_rd=1.00:0.00 / mixed_ref=1 / me_range=16 / chroma_me=1 / trellis=1 / 8x8dct=1 / cqm=0 / deadzone=21,11 / fast_pskip=1 / chroma_qp_offset=-2 / threads=3 / sliced_threads=0 / nr=0 / decimate=1 / interlaced=0 / constrained_intra=0 / bframes=6 / b_pyramid=2 / b_adapt=1 / b_bias=0 / direct=1 / weightb=1 / open_gop=0 / weightp=2 / keyint=240 / keyint_min=23 / scenecut=40 / intra_refresh=0 / rc_lookahead=40 / rc=2pass / mbtree=1 / bitrate=3500 / ratetol=1.0 / qcomp=0.60 / qpmin=3 / qpmax=51 / qpstep=4 / cplxblur=20.0 / qblur=0.5 / ip_ratio=1.40 / aq=1:1.00
Дата кодирования : UTC 2011-12-25 23:45:26
Дата пометки : UTC 2011-12-26 06:27:56
Основные цвета : BT.709-5, BT.1361, IEC 61966-2-4, SMPTE RP177
Характеристики трансфера : BT.709-5, BT.1361
Коэффициенты матрицы : BT.709-5, BT.1361, IEC 61966-2-4 709, SMPTE RP177
Аудио #1
Идентификатор : 2
Формат : AAC
Формат/Информация : Advanced Audio Codec
Профиль формата : LC
Идентификатор кодека : 40
Продолжительность : 1 ч. 51 м.
Вид битрейта : Переменный
Битрейт : 154 Кбит/сек
Максимальный битрейт : 239 Кбит/сек
Канал(ы) : 2 канала(ов)
Расположение каналов : Front: L R
Частота : 48,0 КГц
Метод сжатия : С потерями
Размер потока : 123 Мбайт (4%)
Язык : Russian
Дата кодирования : UTC 2011-12-26 10:07:53
Дата пометки : UTC 2011-12-26 10:08:12
Аудио #2
Идентификатор : 3
Формат : AAC
Формат/Информация : Advanced Audio Codec
Профиль формата : LC
Идентификатор кодека : 40
Продолжительность : 1 ч. 51 м.
Вид битрейта : Переменный
Битрейт : 151 Кбит/сек
Максимальный битрейт : 239 Кбит/сек
Канал(ы) : 2 канала(ов)
Расположение каналов : Front: L R
Частота : 48,0 КГц
Метод сжатия : С потерями
Размер потока : 120 Мбайт (4%)
Язык : English
Дата кодирования : UTC 2011-12-26 10:07:53
Дата пометки : UTC 2011-12-26 10:08:34
Текст #1
Идентификатор : 4
Формат : Timed text
Режим смешивания : sbtl
Идентификатор кодека : tx3g
Продолжительность : 1 ч. 43 м.
Вид битрейта : Переменный
Битрейт : 60 бит/сек
Размер потока : 45,5 Кбайт (0%)
Язык : Russian
Дата кодирования : UTC 2011-12-26 10:07:53
Дата пометки : UTC 2011-12-26 10:08:34
Текст #2
Идентификатор : 5
Формат : Timed text
Режим смешивания : sbtl
Идентификатор кодека : tx3g
Продолжительность : 1 ч. 43 м.
Вид битрейта : Переменный
Битрейт : 43 бит/сек
Размер потока : 32,7 Кбайт (0%)
Язык : English
Дата кодирования : UTC 2011-12-26 10:07:53
Дата пометки : UTC 2011-12-26 10:08:34

Скриншоты
Для просмотра данного релиза на компьютере с ОС Windows рекомендуется использовать VLC media player



Вернуться к началу
 Профиль Отправить личное сообщение  
 
   Похожие торренты   Автор   Торрент   Размер 
В этой теме нет новых непрочитанных сообщений. Сокращая класс / Cutting Class [Триллер, ужасы, комедия, 1989] BDRip 720p, Avo [Unrated]

salma3

0 | 7

4.37 ГБ

В этой теме нет новых непрочитанных сообщений. 100 футов / 100 Feet [Ужасы, триллер, детектив, 2008] BDRemux 1080p, Mvo

salma3

1 | 1

20.53 ГБ

В этой теме нет новых непрочитанных сообщений. Кукла 2: Брамс / Brahms: The Boy II [ужасы, триллер, детектив, 2020] BDRip, Dub [iTunes]

salma3

0 | 0

1.42 ГБ

В этой теме нет новых непрочитанных сообщений. Синдром Стендаля / La sindrome di Stendhal [ужасы, детектив, триллер, 1996] BDRip 720p, Mvo

salma3

0 | 0

10.56 ГБ

В этой теме нет новых непрочитанных сообщений. 100 футов / 100 Feet [ужасы, триллер, детектив, 2008] HDRip-AVC, Mvo [Open Matte]

salma3

3 | 1

1.91 ГБ

В этой теме нет новых непрочитанных сообщений. Сверхъестественное / Supernatural [S04] [Ужасы, триллер, мистика, 2008-2009] BDRip, Dvo [AXN-Sci-Fi]

salma3

0 | 0

12.39 ГБ

В этой теме нет новых непрочитанных сообщений. Ужас на глубине 9 миль / Nine Miles Down [ужасы, триллер, детектив, 2009] BDRip-HEVC 1080p, Dvo

salma3

29 | 2

5.15 ГБ


Начать новую тему Ответить на тему  [ 1 сообщение ] 




Для Мосгорсуда, Роскомнадзора и рекламодателей:: rstracker[собака]yandex.ru
cron