Торрент файл
скачать торрент магнет ссылка Добавлен: 12 янв 2013, 23:53
Размер: 2.56 ГБ
Сидеров: 2
Личеров: 4
Автор

СообщениеДобавлено: 12 янв 2013, 23:53 

Не в сети
Супермодератор
Аватара пользователя
Дата регистрации:
11 апр 2010, 18:10
Спасибо: 6068 / 7
Сообщения: 56660
id="p-25224744-1">Фрэнки и Джонни / Frankie and Johnny



Год выпуска: 1991
Страна: США
Жанр: комедия, мелодрама, драма
Продолжительность: 01:52:55
Перевод: Профессиональный (многоголосый)
Авторский перевод Алексея Михалева
Режиссер: Гэрри Маршалл /Garry Marshall/
В ролях: Аль Пачино /Al Pacino/, Мишель Пфайффер /Michelle Pfeiffer/, Гектор Элизондо /Hector Elizondo/, Кейт Неллиган /Kate Nelligan/, Джейн Моррис /Jane Morris/, Фернандо Лопес /Fernando Lopez/, Грег Льюис /Greg Lewis/, Натан Лэйн /Nathan Lane/, Эл Фэнн /Al Fann/, Гленн Пламмер /Glenn Plummer/, Шон О'Брайан /Sean O'Bryan/, Кей Кэллэн /K Callan/, Или Китс /Ele Keats/, Шэннон Уилкокс /Shannon Wilcox/, Фил Лидс /Phil Leeds/
Описание: Джонни — хороший парень, который однажды оступился и угодил за решетку. Когда Джонни вышел на свободу, он решил начать новую жизнь и… встретил Фрэнки.
Фрэнки — милая, но одинокая молодая женщина, которой очень не везло в любви. Она уже отчаялась найти своего «прекрасного принца» и… встретила Джонни.

Качество: HDTVRip
Формат: m4v
Видео кодек: H.264
Аудио кодек: AAC
Видео: 1024x576, 2814 Kbps, 25 fps
Аудио Rus: 48 kHz, AAC, 2ch, 140 kbps - Профессиональный многоголосый
Аудио Rus: 48 kHz, AAC, 2ch, 122 kbps - Авторский Алексея Михалева
Аудио Eng: 48 kHz, AAC, 2ch, 160 kbps
MediaInfo
Код:
Код:
Полное имя : F:\iPad\Frankie and Johnny.m4v
Формат : MPEG-4
Идентификатор кодека : M4V
Размер файла : 2,56 Гбайт
Продолжительность : 1 ч. 52 м.
Общий поток : 3250 Кбит/сек
Название фильма : Фрэнки и Джонни
Исполнитель : Гэрри Маршалл
Жанр : Romance
Дата записи : UTC 1991-10-11 07:00:00
Дата кодирования : UTC 2012-02-13 10:45:30
Дата пометки : UTC 2012-02-18 20:05:09
Обложка : Yes
desc : Джонни — хороший парень, который однажды оступился и угодил за решетку. Когда Джонни вышел на свободу, он решил начать новую жизнь и… встретил Фрэнки.
ldes : Джонни — хороший парень, который однажды оступился и угодил за решетку. Когда Джонни вышел на свободу, он решил начать новую жизнь и… встретил Фрэнки.
hdvd : 1
stik : 9
cnID : 291735123
xid : iPad:vendor_id:1991-4873
iTunEXTC : mpaa|R|400|
iTunMOVI : / / / / cast / / / name / Аль Пачино / / / name / Мишель Пфайффер / / / name / Гектор Элизондо / / / name / Натан Лейн / / / name / Кейт Неллиган / / / name / Джейн Моррис / / / name / Грег Льюис / / / name / Эл Фэнн / / / name / Эли Китс / / / name / Фернандо Лопез. / / / directors / / / name / Гэрри Маршалл / / / producers / / / name / Ник Эбдо / / / name / Гэрри Маршалл / / / name / Чарльз Малвехилл / / / screenwriters / / / name / Терренс МакНалли / / / /
Видео
Идентификатор : 1
Формат : AVC
Формат/Информация : Advanced Video Codec
Профиль формата : Main@L4.1
Параметр CABAC формата : Да
Параметр ReFrames формата : 6 кадры
Идентификатор кодека : avc1
Идентификатор кодека/Информация : Advanced Video Coding
Продолжительность : 1 ч. 52 м.
Вид битрейта : Переменный
Битрейт : 2814 Кбит/сек
Максимальный битрейт : 7587 Кбит/сек
Ширина : 1024 пикс.
Высота : 576 пикс.
Соотношение сторон : 16:9
Режим частоты кадров : Постоянный
Частота кадров : 25,000 кадр/сек
Цветовое пространство : YUV
Подвыборка цветности : 4:2:0
Битовая глубина : 8 бит
Тип развёртки : Прогрессивная
Бит/(Пиксели*Кадры) : 0.191
Размер потока : 2,22 Гбайт (87%)
Библиотека кодирования : x264 core 116 r2074 2641b9e
Настройки программы : cabac=1 / ref=6 / deblock=1:-2:-2 / analyse=0x1:0x131 / me=umh / subme=11 / psy=1 / psy_rd=1.00:0.00 / mixed_ref=1 / me_range=39 / chroma_me=1 / trellis=2 / 8x8dct=0 / cqm=0 / deadzone=21,11 / fast_pskip=0 / chroma_qp_offset=-2 / threads=9 / sliced_threads=0 / nr=0 / decimate=1 / interlaced=0 / bluray_compat=0 / constrained_intra=0 / bframes=6 / b_pyramid=2 / b_adapt=2 / b_bias=0 / direct=2 / weightb=1 / open_gop=0 / weightp=2 / keyint=250 / keyint_min=25 / scenecut=40 / intra_refresh=0 / rc=2pass / mbtree=0 / bitrate=2814 / ratetol=1.0 / qcomp=0.60 / qpmin=10 / qpmax=51 / qpstep=4 / cplxblur=20.0 / qblur=0.5 / ip_ratio=1.40 / pb_ratio=1.40 / aq=1:1.00
Язык : Russian
Дата кодирования : UTC 2012-02-13 10:45:30
Дата пометки : UTC 2012-02-13 10:48:02
Аудио #1
Идентификатор : 2
Формат : AAC
Формат/Информация : Advanced Audio Codec
Профиль формата : LC
Идентификатор кодека : 40
Продолжительность : 1 ч. 52 м.
Вид битрейта : Переменный
Битрейт : 140 Кбит/сек
Максимальный битрейт : 226 Кбит/сек
Канал(ы) : 2 канала(ов)
Расположение каналов : Front: L R
Частота : 48,0 КГц
Метод сжатия : С потерями
Размер потока : 113 Мбайт (4%)
Заголовок : MVO
Язык : Russian
Дата кодирования : UTC 2012-02-13 10:47:29
Дата пометки : UTC 2012-02-13 10:48:02
Аудио #2
Идентификатор : 3
Формат : AAC
Формат/Информация : Advanced Audio Codec
Профиль формата : LC
Идентификатор кодека : 40
Продолжительность : 1 ч. 52 м.
Вид битрейта : Переменный
Битрейт : 122 Кбит/сек
Максимальный битрейт : 218 Кбит/сек
Канал(ы) : 2 канала(ов)
Расположение каналов : Front: L R
Частота : 48,0 КГц
Метод сжатия : С потерями
Размер потока : 98,8 Мбайт (4%)
Заголовок : AVO (Mihaljov)
Язык : Russian
Дата кодирования : UTC 2012-02-13 10:47:40
Дата пометки : UTC 2012-02-13 10:48:02
Аудио #3
Идентификатор : 4
Формат : AAC
Формат/Информация : Advanced Audio Codec
Профиль формата : LC
Идентификатор кодека : 40
Продолжительность : 1 ч. 52 м.
Вид битрейта : Переменный
Битрейт : 160 Кбит/сек
Максимальный битрейт : 242 Кбит/сек
Канал(ы) : 2 канала(ов)
Расположение каналов : Front: L R
Частота : 48,0 КГц
Метод сжатия : С потерями
Размер потока : 129 Мбайт (5%)
Заголовок : English
Язык : English
Дата кодирования : UTC 2012-02-13 10:47:51
Дата пометки : UTC 2012-02-13 10:48:02
Текст #1
Идентификатор : 5
Формат : Timed text
Режим смешивания : sbtl
Идентификатор кодека : tx3g
Продолжительность : 1 ч. 52 м.
Вид битрейта : Переменный
Битрейт : 63 бит/сек
Размер потока : 52,1 Кбайт (0%)
Заголовок : Английские
Язык : English
Дата кодирования : UTC 2012-02-13 10:48:02
Дата пометки : UTC 2012-02-13 10:48:02
Текст #2
Идентификатор : 7
Формат : Apple text
Идентификатор кодека : text
Продолжительность : 1 ч. 52 м.
Вид битрейта : Постоянный
Битрейт : 1 бит/сек
Размер потока : 575 байт (0%)
Дата кодирования : UTC 2012-02-18 20:05:09
Дата пометки : UTC 2012-02-18 20:05:09

Скриншоты



Вернуться к началу
 Профиль Отправить личное сообщение  
 
   Похожие торренты   Автор   Торрент   Размер 
В этой теме нет новых непрочитанных сообщений. Фрэнки / Frankie [Драма, 2019] BDRip, Mvo [iTunes]

salma3

0 | 0

1.46 ГБ

В этой теме нет новых непрочитанных сообщений. Мы - одна команда / We Are Marshall [Драма, Спорт, 2006] ВDRip 720p, Mvo

salma3

0 | 0

6.97 ГБ

В этой теме нет новых непрочитанных сообщений. Мы - одна команда / We Are Marshall [Драма, Спорт, 2006] ВDRip 1080p, Mvo

salma3

0 | 0

10.62 ГБ

В этой теме нет новых непрочитанных сообщений. Горячие головы / Hot Shots! [комедия, боевик, мелодрама, 1991] BDRip-HEVC 1080p, Dub

salma3

1 | 0

7.32 ГБ

В этой теме нет новых непрочитанных сообщений. Операция «Тушенка» / L'operation Corned-Beef [Боевик, комедия, мелодрама, 1991] BDRip 1080p, Mvo

salma3

0 | 0

11.28 ГБ

В этой теме нет новых непрочитанных сообщений. Операция «Тушенка» / L'operation Corned-Beef [Боевик, комедия, мелодрама, 1991] BDRip 720p, Mvo

salma3

0 | 0

5.99 ГБ

В этой теме нет новых непрочитанных сообщений. Год оружия / Year of the Gun [боевик, триллер, мелодрама, 1991] WEBRip, Dvo

salma3

0 | 0

1.49 ГБ


Начать новую тему Ответить на тему  [ 1 сообщение ] 




Для Мосгорсуда, Роскомнадзора и рекламодателей:: rstracker[собака]yandex.ru
cron