Торрент файл
скачать торрент магнет ссылка Добавлен: 12 янв 2013, 23:51
Размер: 1.19 ГБ
Сидеров: 9
Личеров: 6
Автор

СообщениеДобавлено: 12 янв 2013, 23:51 

Не в сети
Супермодератор
Аватара пользователя
Дата регистрации:
11 апр 2010, 18:10
Спасибо: 6068 / 7
Сообщения: 56660
id="p-25224744-1">Запах женщины
Scent of a Woman

Год выпуска: 1992
Страна: США
Жанр: Драма
Продолжительность: 02:36:24
Перевод: Профессиональный (многоголосый, закадровый)
Режиссер: Мартин Брест
Сценарий: Бо Голдмэн, Руджеро Маккари, Дино Ризи, ...
Продюсер: Мартин Брест, Дж. Мак Браун, Рональд Л. Швари
Оператор: Дональд И. Торин
Композитор: Томас Ньюман
Художник: Анджело П. Грэхэм, В. Стивен Грэхэм, Од Бронсон-Хауард, ...
Монтаж: Харви Розенсток, Уильям Стайнкамп, Майкл Троник
В ролях: Аль Пачино, Крис О`Доннелл, Джеймс Ребхорн, Габриэлль Анвар, Филип Сеймур Хоффман, Ричард Вентура, Брэдли Уитфорд, Рошелль Оливер, Маргарет Эджинтон, Том Риис Фаррелл, Николас Сэдлер, Тодд Луизо, Мэтт Смит, Джин Кэнвилд, Фрэнсис Сонрой, June Squibb, Рон Элдард, Сэлли Мерфи, Майкл Санторо, Элисон Фельдман, Эрика Фельдман
Описание: Наступил День благодарения, и отставной полковник разведки Фрэнк Слэйд решает справить праздник, «побаловав» себя поездкой в Нью-Йорк. Фрэнк хочет обставить свой последний «коронный выход» по высшему разряду: изысканный отель, шикарный лимузин, дорогая выпивка и женщины потрясающей красоты.Есть лишь две проблемки. Первая: Фрэнк слеп на оба глаза. И вторая: волнующиеся родственники полковника решают нанять за небольшую сумму провожатого в лице нуждающегося студента престижного колледжа по имени Чарли Симмз. Последнее, что было нужно в поездке полковнику Слэйду так это «зеленый» юнец Чарли. Но случилось так, что путешествие этих двух потрясающе не похожих друг на друга людей изменило их жизни навсегда.
КиноПоиск: 8.485 (40 751)
IMDb: 7.80 (67 870)
Качество: HDRip
Формат: MP4
Видео кодек: H.264
Аудио кодек: AAC
Видео: 592x320 (1.85:1), 23.976 fps, 960 kbps
Аудио: 48 kHz, 2 ch, 128 kbps
MI:
General
Complete name : D:\Мои раздачи\Запах женщины\Scent of a Woman.mp4
Format : MPEG-4
Format profile : Base Media
Codec ID : isom
File size : 1.19 GiB
Duration : 2h 36mn
Overall bit rate : 1 090 Kbps
Performer : Мартин Брест
Genre : Drama
Encoded date : UTC 2011-10-11 16:37:57
Tagged date : UTC 2011-10-11 16:37:57
Writing application : Yamb 2.1.0.0 []http://yamb.unite-video.com]
Copyright : by <<<KURT>>>
Cover : Yes
ldes : Наступил День благодарения, и отставной полковник разведки Фрэнк Слэйд решает справить праздник, «побаловав» себя поездкой в Нью-Йорк. Фрэнк хочет обставить свой последний «коронный выход» по высшему разряду: изысканный отель, шикарный лимузин, дорогая выпивка и женщины потрясающей красоты. / Есть лишь две проблемки. Первая: Фрэнк слеп на оба глаза. И вторая: волнующиеся родственники полковника решают нанять за небольшую сумму провожатого в лице нуждающегося студента престижного колледжа по имени Чарли Симмз. Последнее, что было нужно в поездке полковнику Слэйду - так это «зеленый» юнец Чарли. Но случилось так, что путешествие этих двух потрясающе не похожих друг на друга людей изменило их жизни навсегда.
stik : 0
iTunMOVI : <?xml version="1.0" encoding="UTF-8"?> / <!DOCTYPE plist PUBLIC "-/Apple/DTD PLIST 1.0/EN" "http://www.apple.com/DTDs/PropertyList-1.0.dtd"> / <plist version="1.0"> / <dict> / <key>cast</key> / <array> / <dict> / <key>name</key> / <string>Аль Пачино</string> / </dict> / <dict> / <key>name</key> / <string>Крис О`Доннелл</string> / </dict> / <dict> / <key>name</key> / <string>Джеймс Ребхорн</string> / </dict> / <dict> / <key>name</key> / <string>Габриэлль Анвар</string> / </dict> / <dict> / <key>name</key> / <string>Филип Сеймур Хоффман</string> / </dict> / <dict> / <key>name</key> / <string>Ричард Вентура</string> / </dict> / <dict> / <key>name</key> / <string>Брэдли Уитфорд</string> / </dict> / <dict> / <key>name</key> / <string>Рошелль Оливер</string> / </dict> / <dict> / <key>name</key> / <string>Маргарет Эджинтон</string> / </dict> / <dict> / <key>name</key> / <string>Том Риис Фаррелл</string> / </dict> / <dict> / <key>name</key> / <string>Николас Сэдлер</string> / </dict> / <dict> / <key>name</key> / <string>Тодд Луизо</string> / </dict> / <dict> / <key>name</key> / <string>Мэтт Смит</string> / </dict> / <dict> / <key>name</key> / <string>Джин Кэнвилд</string> / </dict> / <dict> / <key>name</key> / <string>Фрэнсис Сонрой</string> / </dict> / <dict> / <key>name</key> / <string>June Squibb</string> / </dict> / <dict> / <key>name</key> / <string>Рон Элдард</string> / </dict> / <dict> / <key>name</key> / <string>Сэлли Мерфи</string> / </dict> / <dict> / <key>name</key> / <string>Майкл Санторо</string> / </dict> / <dict> / <key>name</key> / <string>Элисон Фельдман</string> / </dict> / <dict> / <key>name</key> / <string>Эрика Фельдман</string> / </dict> / </array> / <key>directors</key> / <array> / <dict> / <key>name</key> / <string>Мартин Брест</string> / </dict> / </array> / </dict> / </plist>
Video
ID : 1
Format : AVC
Format/Info : Advanced Video Codec
Format profile : Baseline@L3.0
Format settings, CABAC : No
Format settings, ReFrames : 6 frames
Codec ID : avc1
Codec ID/Info : Advanced Video Coding
Duration : 2h 36mn
Bit rate : 960 Kbps
Maximum bit rate : 5 224 Kbps
Width : 592 pixels
Height : 320 pixels
Display aspect ratio : 1.850
Frame rate mode : Constant
Frame rate : 23.976 fps
Color space : YUV
Chroma subsampling : 4:2:0
Bit depth : 8 bits
Scan type : Progressive
Bits/(Pixel*Frame) : 0.211
Stream size : 1.05 GiB (88%)
Writing library : x264 core 115 r1937 aa21558
Encoding settings : cabac=0 / ref=6 / deblock=1:-1:-1 / analyse=0x1:0x111 / me=umh / subme=9 / psy=1 / psy_rd=1.00:0.00 / mixed_ref=1 / me_range=16 / chroma_me=1 / trellis=0 / 8x8dct=0 / cqm=0 / deadzone=21,11 / fast_pskip=0 / chroma_qp_offset=-2 / threads=6 / sliced_threads=0 / nr=0 / decimate=0 / interlaced=0 / bluray_compat=0 / constrained_intra=0 / bframes=0 / weightp=0 / keyint=250 / keyint_min=23 / scenecut=40 / intra_refresh=0 / rc_lookahead=60 / rc=2pass / mbtree=1 / bitrate=960 / ratetol=1.0 / qcomp=0.60 / qpmin=0 / qpmax=69 / qpstep=4 / cplxblur=20.0 / qblur=0.5 / ip_ratio=1.40 / aq=1:1.00
Encoded date : UTC 2011-10-11 14:07:47
Tagged date : UTC 2011-10-11 16:38:39
Audio
ID : 2
Format : AAC
Format/Info : Advanced Audio Codec
Format profile : LC
Codec ID : 40
Duration : 2h 36mn
Bit rate mode : Variable
Bit rate : 128 Kbps
Maximum bit rate : 138 Kbps
Channel(s) : 2 channels
Channel positions : Front: L R
Sampling rate : 48.0 KHz
Compression mode : Lossy
Stream size : 143 MiB (12%)
Language : Russian
Encoded date : UTC 2011-10-11 16:38:37
Tagged date : UTC 2011-10-11 16:38:39

Скриншоты:





Вернуться к началу
 Профиль Отправить личное сообщение  
 
   Похожие торренты   Автор   Торрент   Размер 
В этой теме нет новых непрочитанных сообщений. Vivid - Глаза другой женщины / Another Woman's Eyes (2004) DVDRip

zorgi

16 | 0

1.46 ГБ

В этой теме нет новых непрочитанных сообщений. Vivid - Глаза другой женщины / Another Woman's Eyes (2004) DVD5

zorgi

0 | 0

4.36 ГБ

В этой теме нет новых непрочитанных сообщений. Обещание женщины / A Woman's Promise (Sweetheart Video) [2019 г., Feature, All Girls, Lesbians, Stockings, Hairy Pussy, Fingering, 69, Face Sitting, Ass Licking, Cunnilingus, Kissing, WEB-DL]

BaLaMuT

25 | 9

1.39 ГБ

В этой теме нет новых непрочитанных сообщений. Маленькие женщины / Little Women [Драма, мелодрама, 2019] WEB-DLRip, Dub [iTunes]

salma3

0 | 0

2.18 ГБ

В этой теме нет новых непрочитанных сообщений. Kerri Martin - Northbound [2021 г., Indie-Rock, MP3]

zorgi

0 | 0

97.74 МБ

В этой теме нет новых непрочитанных сообщений. Девушка, подающая надежды / Promising Young Woman [триллер, драма, криминал, 2020] WEB-DLRip, Dub [iTunes]

salma3

1085 | 53

1.45 ГБ

В этой теме нет новых непрочитанных сообщений. Женщины агенты / Жінки-агенти / Les femmes de l'ombre [Боевик, историческая драма, 2008] BDRip, Mvo [UKR]

salma3

2 | 0

1.87 ГБ


Начать новую тему Ответить на тему  [ 1 сообщение ] 




Для Мосгорсуда, Роскомнадзора и рекламодателей:: rstracker[собака]yandex.ru
cron