Торрент файл
скачать торрент магнет ссылка Добавлен: 12 янв 2013, 23:46
Размер: 2.64 ГБ
Сидеров: 2
Личеров: 3
Автор

СообщениеДобавлено: 12 янв 2013, 23:46 

Не в сети
Супермодератор
Аватара пользователя
Дата регистрации:
11 апр 2010, 18:10
Спасибо: 6068 / 7
Сообщения: 56660
id="p-25224744-1">Адреналин / Crank«Есть тысяча способов поднять адреналин... Сегодня ему нужны все!»

Страна: США
Жанр: боевик, триллер, драма, криминал
Год выпуска: 2006
Продолжительность: 01:34:10
Перевод: Профессиональный (полное дублирование)
Cубтитры: есть
Оригинальная аудиодорожка: английский
Режиссер: Марк Невелдайн, Брайан Тейлор
Сценарий: Марк Невелдайн, Брайан Тейлор
Продюсер: Майкл Дэвис, Гари Лучези, Том Розенберг
В ролях: Джейсон Стэтхэм, Эми Смарт, Эфрен Рамирез, Jose Pablo Cantillo, Дуайт Йокем, Карлос Санс, Рено Уилсон, Edi Gathegi, Гленн Хоуертон, Кион Янг, Валери Рэй Миллер, Laurent Schwaar, Дэвид Браун, Дориан Кинги, Дэниэл Стивенс, Уолли Лозаньо, Дэвид Т. Грин, Аллен Блумфилд, Стефани Мейс
Описание: Наемный убийца Чев узнает, что недоброжелатели отравили его редким китайским ядом и отрава начнет действовать немедленно, как только пульс перестанет биться ниже определенной отметки.
И теперь Чеву нужно успеть сделать все свои дела, попробовать раздобыть противоядие и отомстить своим отравителям в прямом смысле слова впопыхах — стараясь создавать вокруг себя как можно более напряженную обстановку и не расслабляться ни на секунду.
Качество: BDRip
Исходник: Blu-Ray
Формат: m4v
Видео кодек: H.264
Аудио кодек: AAC
Видео: 1280х688, 3500 Kbps, 23,976 fps
Аудио RUS: 48 kHz, AAC, 2ch, 160 kbps - Профессиональный (полное дублирование)
Аудио RUS: 48 kHz, AAC, 2ch, 160 kbps - Профессиональный (закадровый)Гланц и Королева
Аудио ENG: 48 kHz, AAC, 2ch, 182 kbps - Оригинал
MediaInfo
Код:
Код:
Полное имя : E:\рипы\Crank_new.m4v
Формат : MPEG-4
Идентификатор кодека : M4V
Размер файла : 2,64 Гбайт
Продолжительность : 1 ч. 34 м.
Общий поток : 4018 Кбит/сек
Название фильма : Адреналин
Исполнитель : Mark Neveldine & Brian Taylor
Жанр : Action & Adventure
Дата записи : UTC 2006-09-01 07:00:00
Дата кодирования : UTC 2011-12-14 20:45:52
Дата пометки : UTC 2011-12-15 20:51:20
Обложка : Yes
desc : Наемный убийца Чев узнает, что недоброжелатели отравили его редким китайским ядом и отрава начнет действовать немедленно, как только пульс перестанет биться ниже определенной отметки.
ldes : Наемный убийца Чев узнает, что недоброжелатели отравили его редким китайским ядом и отрава начнет действовать немедленно, как только пульс перестанет биться ниже определенной отметки.
hdvd : 1
stik : 9
cnID : 284827606
xid : iPad:vendor_id:2006-180609
iTunEXTC : mpaa|R|400|
iTunMOVI : / / / / cast / / / name / Джейсон Стэтхэм / / / name / Эми Смарт / / / name / Хосе Пабло Кантилльо / / / name / Эфрен Рамирез / / / name / Дуайт Йокем / / / name / Карлос Санс / / / name / Рено Уилсон / / / name / Гленн Хоуертон / / / directors / / / name / Марк Невелдайн / / / name / Брайан Тейлор / / / producers / / / name / Майкл Дэвис / / / name / Гари Лучези / / / name / Том Розенберг / / / screenwriters / / / name / Марк Невелдайн / / / name / Брайан Тейлор / / / /
Видео
Идентификатор : 1
Формат : AVC
Формат/Информация : Advanced Video Codec
Профиль формата : High@L4.0
Параметр CABAC формата : Да
Параметр ReFrames формата : 9 кадры
Идентификатор кодека : avc1
Идентификатор кодека/Информация : Advanced Video Coding
Продолжительность : 1 ч. 34 м.
Вид битрейта : Переменный
Битрейт : 3500 Кбит/сек
Максимальный битрейт : 17,5 Мбит/сек
Ширина : 1280 пикс.
Высота : 688 пикс.
Соотношение сторон : 1,860
Режим частоты кадров : Переменный
Частота кадров : 23,976 кадр/сек
Минимальная частота кадров : 23,969 кадр/сек
Максимальная частота кадров : 24,015 кадр/сек
Цветовое пространство : YUV
Подвыборка цветности : 4:2:0
Битовая глубина : 8 бит
Тип развёртки : Прогрессивная
Бит/(Пиксели*Кадры) : 0.166
Размер потока : 2,30 Гбайт (87%)
Библиотека кодирования : x264 core 112
Настройки программы : cabac=1 / ref=9 / deblock=1:0:0 / analyse=0x3:0x113 / me=umh / subme=9 / psy=1 / psy_rd=1.00:0.00 / mixed_ref=1 / me_range=16 / chroma_me=1 / trellis=1 / 8x8dct=1 / cqm=0 / deadzone=21,11 / fast_pskip=1 / chroma_qp_offset=-2 / threads=3 / sliced_threads=0 / nr=0 / decimate=1 / interlaced=0 / constrained_intra=0 / bframes=6 / b_pyramid=2 / b_adapt=1 / b_bias=0 / direct=1 / weightb=1 / open_gop=0 / weightp=2 / keyint=240 / keyint_min=23 / scenecut=40 / intra_refresh=0 / rc_lookahead=40 / rc=2pass / mbtree=1 / bitrate=3500 / ratetol=1.0 / qcomp=0.60 / qpmin=3 / qpmax=51 / qpstep=4 / cplxblur=20.0 / qblur=0.5 / ip_ratio=1.40 / aq=1:1.00
Язык : English
Дата кодирования : UTC 2011-12-14 20:45:52
Дата пометки : UTC 2011-12-14 20:49:02
Основные цвета : BT.709-5, BT.1361, IEC 61966-2-4, SMPTE RP177
Характеристики трансфера : BT.709-5, BT.1361
Коэффициенты матрицы : BT.709-5, BT.1361, IEC 61966-2-4 709, SMPTE RP177
Аудио #1
Идентификатор : 2
Формат : AAC
Формат/Информация : Advanced Audio Codec
Профиль формата : LC
Идентификатор кодека : 40
Продолжительность : 1 ч. 34 м.
Вид битрейта : Переменный
Битрейт : 160 Кбит/сек
Максимальный битрейт : 218 Кбит/сек
Канал(ы) : 2 канала(ов)
Расположение каналов : Front: L R
Частота : 48,0 КГц
Метод сжатия : С потерями
Размер потока : 108 Мбайт (4%)
Заголовок : Russian stereo (DUB)
Язык : Russian
Дата кодирования : UTC 2011-12-14 20:48:30
Дата пометки : UTC 2011-12-14 20:49:02
Аудио #2
Идентификатор : 3
Формат : AAC
Формат/Информация : Advanced Audio Codec
Профиль формата : LC
Идентификатор кодека : 40
Продолжительность : 1 ч. 34 м.
Вид битрейта : Переменный
Битрейт : 160 Кбит/сек
Максимальный битрейт : 219 Кбит/сек
Канал(ы) : 2 канала(ов)
Расположение каналов : Front: L R
Частота : 48,0 КГц
Метод сжатия : С потерями
Размер потока : 108 Мбайт (4%)
Заголовок : Russian stereo (DVO) Glants i Koroleva
Язык : Russian
Дата кодирования : UTC 2011-12-14 20:48:40
Дата пометки : UTC 2011-12-14 20:49:02
Аудио #3
Идентификатор : 4
Формат : AAC
Формат/Информация : Advanced Audio Codec
Профиль формата : LC
Идентификатор кодека : 40
Продолжительность : 1 ч. 34 м.
Вид битрейта : Переменный
Битрейт : 182 Кбит/сек
Максимальный битрейт : 244 Кбит/сек
Канал(ы) : 2 канала(ов)
Расположение каналов : Front: L R
Частота : 48,0 КГц
Метод сжатия : С потерями
Размер потока : 123 Мбайт (5%)
Заголовок : English stereo
Язык : English
Дата кодирования : UTC 2011-12-14 20:48:51
Дата пометки : UTC 2011-12-14 20:49:02
Текст #1
Идентификатор : 5
Формат : Timed text
Режим смешивания : sbtl
Идентификатор кодека : tx3g
Продолжительность : 1 ч. 17 м.
Вид битрейта : Переменный
Битрейт : 12 бит/сек
Размер потока : 6,56 Кбайт (0%)
Заголовок : На расширенные места
Язык : Russian
Дата кодирования : UTC 2011-12-14 20:49:01
Дата пометки : UTC 2011-12-14 20:49:02
Текст #2
Идентификатор : 6
Формат : Timed text
Режим смешивания : sbtl
Идентификатор кодека : tx3g
Продолжительность : 1 ч. 27 м.
Вид битрейта : Переменный
Битрейт : 93 бит/сек
Размер потока : 59,9 Кбайт (0%)
Заголовок : Полные
Язык : Russian
Дата кодирования : UTC 2011-12-14 20:49:01
Дата пометки : UTC 2011-12-14 20:49:02
Текст #3
Идентификатор : 7
Формат : Timed text
Режим смешивания : sbtl
Идентификатор кодека : tx3g
Продолжительность : 1 ч. 27 м.
Вид битрейта : Переменный
Битрейт : 50 бит/сек
Размер потока : 32,0 Кбайт (0%)
Язык : English
Дата кодирования : UTC 2011-12-14 20:49:02
Дата пометки : UTC 2011-12-14 20:49:02

Лог
Код:
Код:
x264 [info]: frame I:2427  Avg QP:18.21  size: 82167  PSNR Mean Y:46.14 U:49.42 V:50.62 Avg:47.05 Global:46.50
x264 [info]: frame P:79628 Avg QP:21.13  size: 24189  PSNR Mean Y:43.87 U:47.67 V:48.69 Avg:44.85 Global:44.27
x264 [info]: frame B:53425 Avg QP:23.12  size:  6456  PSNR Mean Y:44.00 U:48.45 V:49.87 Avg:45.08 Global:44.17
x264 [info]: consecutive B-frames: 35.2% 34.9%  6.6% 10.4%  8.5%  2.8%  1.5%
x264 [info]: mb I  I16..4: 15.6% 68.5% 15.9%
x264 [info]: mb P  I16..4:  2.1%  7.8%  1.6%  P16..4: 43.8% 17.4% 11.2%  0.0%  0.0%    skip:16.0%
x264 [info]: mb B  I16..4:  0.1%  0.5%  0.2%  B16..8: 40.6%  5.2%  1.3%  direct: 1.9%  skip:50.3%  L0:41.7% L1:51.6% BI: 6.7%
x264 [info]: 8x8 transform intra:67.8% inter:74.5%
x264 [info]: coded y,uvDC,uvAC intra: 75.5% 71.9% 36.2% inter: 23.6% 26.1% 1.5%
x264 [info]: i16 v,h,dc,p: 41% 19%  8% 32%
x264 [info]: i8 v,h,dc,ddl,ddr,vr,hd,vl,hu:  6%  7%  3% 11% 17% 14% 16% 11% 14%
x264 [info]: i4 v,h,dc,ddl,ddr,vr,hd,vl,hu: 10%  9%  3%  9% 14% 13% 16% 10% 15%
x264 [info]: i8c dc,h,v,p: 36% 29% 19% 15%
x264 [info]: Weighted P-Frames: Y:1.9% UV:1.2%
x264 [info]: ref P L0: 59.1% 12.2% 12.6%  4.6%  3.4%  2.6%  2.2%  1.3%  1.3%  0.6%  0.0%
x264 [info]: ref B L0: 78.6% 10.1%  4.6%  2.0%  1.6%  1.4%  1.3%  0.4%
x264 [info]: ref B L1: 95.6%  4.4%
x264 [info]: SSIM Mean Y:0.9781542 (16.606db)
x264 [info]: PSNR Mean Y:43.966 U:48.013 V:49.194 Avg:44.980 Global:44.262 kb/s:3497.61

Скриншоты



Вернуться к началу
 Профиль Отправить личное сообщение  
 
   Похожие торренты   Автор   Торрент   Размер 
В этой теме нет новых непрочитанных сообщений. Беги без оглядки / Running Scared [боевик, триллер, криминал, 2006] BDRip 720p, Dub [Open Matte]

salma3

0 | 0

5.75 ГБ

В этой теме нет новых непрочитанных сообщений. Ох уж эта наука! / Weird Science [комедия, мелодрама, фантастика, 1985] BDRip 1080p, Mvo [Extended Cut=Remastered]

salma3

0 | 0

8.58 ГБ

В этой теме нет новых непрочитанных сообщений. Телохранитель жены киллера / Hitman's Wife's Bodyguard [Боевик, комедия, 2021] WEB-DLRip, Dvo [Extended Cut]]

salma3

44 | 4

1.46 ГБ

В этой теме нет новых непрочитанных сообщений. Копы в глубоком запасе / The Other Guys [боевик, комедия, криминал, 2010] BDRip-AVC, Dub [Theatrical cut]

salma3

2 | 1

2.18 ГБ

В этой теме нет новых непрочитанных сообщений. Город насилия / Jjakpae / The city of violence [Боевик, драма, криминал, 2006] BDRip 1080p, Mvo

salma3

0 | 0

9.16 ГБ

В этой теме нет новых непрочитанных сообщений. Один путь / One Way [боевик, триллер, криминал, 2022] BDRip 720p, Dub

salma3

0 | 0

3.72 ГБ

В этой теме нет новых непрочитанных сообщений. Кокаиновый барон / Running with the Devil [криминал, боевик, триллер, 2019] BDRip 720p, Dub [iTunes]

salma3

0 | 0

4.37 ГБ


Начать новую тему Ответить на тему  [ 1 сообщение ] 




Для Мосгорсуда, Роскомнадзора и рекламодателей:: rstracker[собака]yandex.ru
cron