Торрент файл
скачать торрент магнет ссылка Добавлен: 11 янв 2013, 22:14
Размер: 566.21 МБ
Сидеров: 0
Личеров: 3
Автор

СообщениеДобавлено: 11 янв 2013, 22:14 

Не в сети
Супермодератор
Аватара пользователя
Дата регистрации:
11 апр 2010, 18:10
Спасибо: 6068 / 7
Сообщения: 56660
id="p-25224744-1">Top Gear
ApocalypseГод выпуска: 2010
Страна: Великобритания
Жанр: Автомобильное телешоу
Продолжительность: 01:13:00
Перевод : Любительский одноголосый [AlexFilm.tv]
Режиссёр: Джимми Барроус / James Burrows
В ролях: Ричард Хаммонд (Richard Mark Hammond), Джеймс Мэй (James Daniel May)
Описание: Подробное руководство по автомобилям в постапокалиптическом мире.
На что автомобили будут походить в постапокалиптическом мире? Этот вопрос будоражит умы многих, и мы даем Вам ответы в этом совершенно новом, невероятно веселом DVD Топ Гир, предпринимая ужасающую поездку в будущее, мы показываем Вам, как ездить на работу в кромешной тьме Ядерной Зимы. Как организовать гонку, если выжили только два гонщика, в мире, где все автомобили изобилуют оружием?
И среди всей ядерной резни, мы также разгадываем дилемму последнего бака бензина – на какой машине мы бы совершили свою последнюю поездку? Взрывы обширны, автомобили превосходны, так что расслабьтесь и наслаждайтесь.
P.S. Это пугающее видение послеядерного мира поддержано учеными, в случае, если Вы думаете, что это всего лишь плод больной фантазии Джеймса Мея и Ричарда Хаммонда.
Качество: BDRip
Формат: .m4v
Видео кодек: h.264
Аудио кодек: AAC
Видео: 576х320, 24.980 fps, h.264, 949 Kbps
Аудио: 48.0 KHz, 2 channels, 128 kbps
MediaInfo
General
Complete name : /Users/edwin/Music/iTunes/iTunes Music/Movies/Top Gear - Apocalypse.m4v
Format : MPEG-4
Format profile : Base Media / Version 2
Codec ID : mp42
File size : 566 MiB
Duration : 1h 13mn
Overall bit rate : 1 084 Kbps
Movie name : Top Gear - Apocalypse
Genre : Entertainment
Encoded date : 2010
Tagged date : UTC 2010-12-25 15:25:38
Writing application : HandBrake 0.9.3 2008112300
Cover : Yes
desc : Подробное руководство по автомобилям в постапокалиптическом мире. / / Что будет из себя представлять автомобилизм в постапокалиптическом мире, изуродованном атомными бомбами или огромной кометой? На этот животрепещущий вопрос, которым буквально никто озадаче
Video
ID : 1
Format : AVC
Format/Info : Advanced Video Codec
Format profile : Baseline@L3.0
Format settings, CABAC : No
Format settings, ReFrames : 2 frames
Format settings, GOP : M=1, N=2
Codec ID : avc1
Codec ID/Info : Advanced Video Coding
Duration : 1h 13mn
Bit rate mode : Variable
Bit rate : 949 Kbps
Width : 576 pixels
Height : 320 pixels
Display aspect ratio : 16:9
Frame rate mode : Variable
Frame rate : 24.980 fps
Original frame rate : 25.000 fps
Minimum frame rate : 1.000 fps
Maximum frame rate : 25.000 fps
Color space : YUV
Chroma subsampling : 4:2:0
Bit depth : 8 bits
Scan type : Progressive
Bits/(Pixel*Frame) : 0.206
Stream size : 496 MiB (88%)
Writing library : x264 core 65
Encoding settings : cabac=0 / ref=2 / deblock=1:0:0 / analyse=0x1:0x131 / me=umh / subme=6 / psy_rd=1.0:0.0 / mixed_ref=1 / me_range=16 / chroma_me=1 / trellis=0 / 8x8dct=0 / cqm=0 / deadzone=21,11 / chroma_qp_offset=-2 / threads=3 / nr=0 / decimate=1 / mbaff=0 / bframes=0 / keyint=250 / keyint_min=25 / scenecut=40(pre) / rc=crf / crf=20.9 / qcomp=0.60 / qpmin=10 / qpmax=51 / qpstep=4 / ip_ratio=1.40 / aq=1:1.00
Language : English
Encoded date : UTC 2010-12-24 23:20:17
Tagged date : UTC 2010-12-25 00:25:12
Color primaries : BT.601-6 525, BT.1358 525, BT.1700 NTSC, SMPTE 170M
Transfer characteristics : BT.709-5, BT.1361
Matrix coefficients : BT.601-6 525, BT.1358 525, BT.1700 NTSC, SMPTE 170M
Audio
ID : 2
Format : AAC
Format/Info : Advanced Audio Codec
Format version : Version 4
Format profile : LC
Format settings, SBR : No
Codec ID : 40
Duration : 1h 13mn
Bit rate mode : Variable
Bit rate : 128 Kbps
Maximum bit rate : 221 Kbps
Channel(s) : 2 channels
Channel positions : Front: L R
Sampling rate : 48.0 KHz
Stream size : 66.9 MiB (12%)
Encoded date : UTC 2010-12-24 23:20:17
Tagged date : UTC 2010-12-25 15:25:38
Text
ID : 3
Format : Apple text
Codec ID : text
Duration : 1h 13mn
Bit rate : 0
Stream size : 24.0 Bytes (0%)
Language : English
Encoded date : UTC 2010-12-24 23:20:17
Tagged date : UTC 2010-12-25 00:25:12
Скриншоты





Вернуться к началу
 Профиль Отправить личное сообщение  
 
   Похожие торренты   Автор   Торрент   Размер 
В этой теме нет новых непрочитанных сообщений. Joslyn James- Измена с домохозяйкой 2 / Horny Housewife Hookers 2 / Joslyn James Makes Her Hubby's BF Fuck Her (2011) WEB-DLRip

zorgi

44 | 23

517.26 МБ

В этой теме нет новых непрочитанных сообщений. [MyFriendsHotMom.com / NaughtyAmerica.com] Joslyn James - Huge tit MILF Joslyn James fucks her son's friend... in his dreams! (08.04.2022) [Creampie, All Sex]

zorgi

1 | 0

234.26 МБ

В этой теме нет новых непрочитанных сообщений. Marc Dorcel - Оргия перед апокалипсисом / L'orgie de L'apocalypse / The last shag (2012) HDRip

zorgi

0 | 0

2.18 ГБ

В этой теме нет новых непрочитанных сообщений. Marc Dorcel - Оргия перед апокалипсисом / L'orgie de L'apocalypse / The last shag (2012) WEB-DLRip 720p | Rus

zorgi

0 | 0

2.92 ГБ

В этой теме нет новых непрочитанных сообщений. Suelyn Medeiros - Домашнее блядство бразильской топ-модели попавшее в сеть / Sex Tape (2012) CAMRip

zorgi

79 | 5

131.54 МБ

В этой теме нет новых непрочитанных сообщений. Загрузка / Upload (Сезон 1, Серия 1-10 из 10) (Джеффри Блитц) [2020, Фантастика, комедия, детектив,WEB-DLRip 1080p] [NewStudio + AlexFilm+Eng]+[Subs Rus , ENG]

Враг Нароода

0 | 0

8.06 ГБ

В этой теме нет новых непрочитанных сообщений. [PureTaboo.com] Kenna James - Dream Girl (12.04.2022) [All Sex]

zorgi

0 | 0

590.89 МБ


Начать новую тему Ответить на тему  [ 1 сообщение ] 




Для Мосгорсуда, Роскомнадзора и рекламодателей:: rstracker[собака]yandex.ru
cron