Торрент файл
скачать торрент магнет ссылка Добавлен: 11 янв 2013, 22:13
Размер: 367.69 МБ
Сидеров: 2
Личеров: 2
Автор

СообщениеДобавлено: 11 янв 2013, 22:13 

Не в сети
Супермодератор
Аватара пользователя
Дата регистрации:
11 апр 2010, 18:10
Спасибо: 6068 / 7
Сообщения: 56660
id="p-25224744-1">
Пираты ХХ векаСтрана:
Год выпуска: 1979
Жанр: Боевик
Продолжительность: 01:19:53
Язык: Русский
Субтитры: нет
[url=http://www.kinopoisk.ru/level/1/film/42978/[/url][/url] 7.564
6.2/10
Режиссер:

Дуров, Борис Валентинович

Автор сценария:

Говорухин, Станислав Сергеевич
/ Дуров, Борис Валентинович
Производство:

Киностудия им. М.Горького

Первое творческое объединение
В ролях:
Пётр Вельяминов — Иван Ильич, капитан, Николай Еременко-младший — Сергей Сергеевич, «Дед», старший механик. Тадеуш Касьянов — боцман Михеич, Дилором Камбарова — Маа, Наталья Харахорина — Маша, Майя Эглите — Айна, Виктор Жиганов — Игорь Стеценко, Леонид Трутнев — радист, Георгий Мартиросян — Клюев, П. Ремезов — доктор, В. Гордеев — Юра Микоша, Юрий Кутырев
Пираты:
Рейно Арен — главарь пиратов, Талгат Нигматулин — Салех, Игорь Иосифович Класс — Швейгарт, Джахангир Шахмурадов — Ной, Владимир Епископосян, Н. Бегалин, Л. Азитиев, Б. Кумалагов, Г. Четвериков
Описание:
«Пираты XX века» — популярный советский кинобоевик. Снят в 1979 году. Лидер проката 1980 года — его посмотрели около 90 миллионов человек, а к 1990 году число посмотревших достигло примерно 120 миллионов. Самый кассовый (по посещаемости) за всю историю советского и российского кинопроката фильм.
Советское грузовое судно в заграничном порту получает груз опия для фармакологической промышленности и направляется во Владивосток. По пути экипаж подбирает терпящего бедствие человека. Внезапно на судно совершается нападение вооружённого неизвестного судна. А «пострадавший», оказывается, только этого и ждал: он выводит из строя радиостанцию, мешая подаче сигнала бедствия. Во время нападения часть экипажа торгового судна гибнет, но выжившие спускают шлюпку и отходят от корабля. Чтобы не оставлять свидетелей и улик, бандиты затапливают советский корабль, но благодаря находчивости капитана шлюпка с уцелевшими остаётся незамеченной. Однако течение относит шлюпку в сторону от судоходных путей. После скитаний по волнам одна из уцелевших девушек замечает на горизонте землю. Шлюпка пристаёт к берегу, но после разведки выясняется, что чудом спасшиеся моряки не одиноки на острове — этот клочок земли с удобной бухтой облюбовали пираты. После «военного совета» и оценки сил капитаном принято решение — захватывать стоящий в бухте пиратский корабль.
Оставив женщин в укромном гроте, команда ночью проводит операцию по захвату судна. В это время по случайному звуку пираты находят женщин. Утром советским морякам капитан пиратов предлагает обменять корабль на быстроходный катер с припасами и заложниц. Срок назначили на полночь. Для того чтобы повысить шансы в этой торговле людьми, моряки ищут запутанный фарватер в открытое море среди рифов бухты и, после того как они находят тайник пиратского капитана, им это почти удаётся. Почти, потому что фарватер оказался заминирован пиратами. Иван Ильич идёт на переговоры со злодеями и результатом становится договорённость об обмене. Морякам передаётся вельбот, который, как выясняется через короткое время, искусно испорчен пиратами. Сергей, пока боцман занимается починкой катера, возвращается на корабль и выводит его из строя ...
Создание фильма
Съёмки фильма проводились в трёх местах Крыма: в Новом Свете — Разбойничья бухта, Голубая бухта, Царский пляж; в Коктебеле (быв. Планерское); около посёлка Черноморское (мыс Тарханкут) — сквозной грот. В съёмках использовались теплоходы «Фатеж» и «Адмирал Лунин».
В фильме впервые в советском кинематографе интенсивно используются приёмы каратэ. Из-за этого фильм неоднократно находился под угрозой закрытия, поскольку карате считалось чуждым советскому образу жизни боевым искусством.
Награды
_______
Лидер проката (1980, 1 место) - 87.6 млн. зрителей.
Почетный диплом за своеобразное решение фильма приключенческого жанра на ВКФ в Душанбе-80.
Николай Еременко-мл. - лучший актер 1980 года по опросу журнала "Советский экран".
Звуковая дорожка
_______
Baccara «Love You Till I Die» — во время захвата пиратского судна (на палубе).
The Beatles «Lady Madonna» — во время захвата пиратского судна (в каюте).
Качество:
Формат: MP4
Видео кодек: H.264
Аудио кодек: AAC
Видео: 480x272, 570 Kbps, 25.000 fps
Аудио: AAC LC, Variable, 128 Kbps, 2 channels
Скриншоты

Скриншоты (хронометраж)

Тех. данные

General
Complete name : Piraty.XX.Veka.(Rus).Made by Kronin.mp4
Format : MPEG-4
Format profile : Base Media
Codec ID : isom
File size : 368 MiB
Duration : 1h 19mn
Overall bit rate : 643 Kbps
Encoded date : UTC 2009-07-16 17:46:55
Tagged date : UTC 2009-07-18 03:37:24
Cover : Yes
Video
Format : AVC
Format/Info : Advanced Video Codec
Format profile : Baseline@L3.0
Format settings, CABAC : No
Format settings, ReFrames : 6 frames
Codec ID : avc1
Codec ID/Info : Advanced Video Coding
Duration : 1h 19mn
Bit rate mode : Variable
Bit rate : 512 Kbps
Maximum bit rate : 1 483 Kbps
Width : 480 pixels
Height : 272 pixels
Display aspect ratio : 16/9
Frame rate mode : Constant
Frame rate : 25.000 fps
Resolution : 24 bits
Colorimetry : 4:2:0
Scan type : Progressive
Bits/(Pixel*Frame) : 0.157
Stream size : 293 MiB (80%)
Writing library : x264 core 65 r999kMod cc51047
Encoding settings : cabac=0 / ref=6 / deblock=1:-2:-1 / analyse=0x1:0x131 / me=umh / subme=7 / psy_rd=1.0:0.0 / mixed_ref=1 / me_range=16 / chroma_me=1 / trellis=0 / 8x8dct=0 / cqm=0 / deadzone=21,11 / chroma_qp_offset=-2 / threads=2 / thread_queue=2 / nr=0 / decimate=0 / mbaff=0 / bframes=0 / keyint=250 / keyint_min=25 / scenecut=40(pre) / rc=2pass / bitrate=512 / ratetol=1.0 / qcomp=0.60 / qpmin=10 / qpmax=51 / qpstep=4 / cplxblur=20.0 / qblur=0.5 / ip_ratio=1.40 / aq=1:1.00
Encoded date : UTC 2009-07-16 17:46:55
Tagged date : UTC 2009-07-16 17:47:06
Audio
Format : AAC
Format/Info : Advanced Audio Codec
Format version : Version 4
Format profile : LC
Format settings, SBR : No
Codec ID : 40
Duration : 1h 19mn
Bit rate mode : Variable
Bit rate : 129 Kbps
Maximum bit rate : 150 Kbps
Channel(s) : 2 channels
Channel positions : L R
Sampling rate : 48.0 KHz
Resolution : 16 bits
Stream size : 73.5 MiB (20%)
Encoded date : UTC 2009-07-16 17:47:04
Tagged date : UTC 2009-07-18 03:37:24
Пожалуйста внимание!
[/align



Вернуться к началу
 Профиль Отправить личное сообщение  
 
   Похожие торренты   Автор   Торрент   Размер 
В этой теме нет новых непрочитанных сообщений. Дама в красном / The Lady in Red [Боевик, Драма, Мелодрама, 1979] WEB-DLRip-AVC, Avo

salma3

1 | 0

2.18 ГБ

В этой теме нет новых непрочитанных сообщений. Дом тайных желаний / Josefine Mutzenbacher's: Haus Der Geheimen Luste (1979) DVDRip

zorgi

12 | 2

1.11 ГБ

В этой теме нет новых непрочитанных сообщений. Нянька на ночь / Ночная сиделка / L'infermiera di notte (Mariano Laurenti) [1979 г., эротика, комедия, DVDRip] L

zorgi

2 | 0

1.45 ГБ

В этой теме нет новых непрочитанных сообщений. 30-летняя Годовщина: Лучшее от Marc Dorcel / 1979-2009: 30th Anniversary Vol.1 (2009) DVDRip

zorgi

0 | 0

2.04 ГБ

В этой теме нет новых непрочитанных сообщений. Главное событие / The Main Event [мелодрама, комедия, спорт, 1979] WEBRip, Dvo

salma3

0 | 0

1.48 ГБ

В этой теме нет новых непрочитанных сообщений. Смертоносная пантера 2 / Magkasangga sa batas [боевик, 1993] DVDRip, Avo

salma3

0 | 0

1.36 ГБ

В этой теме нет новых непрочитанных сообщений. Огненная голова / Firehead [боевик, фантастика, триллер, 1991] DVDRip, Avo

salma3

0 | 0

1.44 ГБ


Начать новую тему Ответить на тему  [ 1 сообщение ] 




Для Мосгорсуда, Роскомнадзора и рекламодателей:: rstracker[собака]yandex.ru
cron