Торрент файл
скачать торрент магнет ссылка Добавлен: 05 янв 2013, 22:50
Размер: 2.93 ГБ
Сидеров: 12
Личеров: 7
Автор

СообщениеДобавлено: 05 янв 2013, 22:50 

Не в сети
Супермодератор
Аватара пользователя
Дата регистрации:
11 апр 2010, 18:10
Спасибо: 6068 / 7
Сообщения: 56660
id="p-25224744-1">
Гарри Поттер и Дары смерти: Часть 1 / Harry Potter and the Deathly Hallows: Part 1«Опасность повсюду»


Страна: США
Жанр: фэнтези, драма, детектив
Год выпуска: 2010
Продолжительность: 02:26:08

Перевод #1: Профессиональный (полное дублирование)
Оригинальная аудиодорожка: Английский
Cубтитры: Русские, Русские (форсированные), Английские
Режиссер: Дэвид Йэтс / David Yates

В ролях: Дэниэл Рэдклифф (Harry Potter,), Руперт Гринт (Ron Weasley,), Эмма Уотсон (Hermione Granger,), Том Фелтон (Draco Malfoy), Бонни Райт (Ginny Weasley), Алан Рикман (Professor Severus Snape), Рэйф Файнс (Lord Voldemort), Хелена Бонем Картер (Bellatrix Lestrange), Майкл Гэмбон (Professor Albus Dumbledore), Брендан Глисон (Alastor 'Mad-Eye' Moody), Джон Хёрт (Ollivander), Эванна Линч (Luna Lovegood)
Дублёры: Николай Быстров (Harry Potter), Алексей Костричкин (Ron Weasley), Лина Иванова (Hermione Granger), Велимир Русаков (Draco Malfoy), Полина Чекан (Ginny Weasley), Алексей Рязанцев (Professor Severus Snape), Всеволод Кузнецов (Lord Voldemort), Наталия Вдовина (Bellatrix Lestrange), Василий Бочкарев (Professor Albus Dumbledore), Борис Быстров (Alastor 'Mad-Eye' Moody), Василий Стоноженко (Ollivander), Мария Иващенко (Luna Lovegood)

Описание: Гарри Поттера ждёт самое страшное испытание в жизни — смертельная схватка с Волан-де-Мортом. Ждать помощи не от кого — Гарри одинок, как никогда… Друзья и враги Гарри предстают в совершенно неожиданном свете. Граница между Добром и Злом становится всё призрачнее…

Качество видео: BDRip - Исходник Blu-Ray Remux
Формат видео: m4v
Видео кодек: H.264
Аудио кодек: AAC
Видео: 1280х528 (2.40:1), 23,976 fps, H.264 2550 kbps avg, 0.155 bit/pixel
Аудио #1: Russian, 48,0 kHz, AAC LC, 2 ch, 163 kbps avg | DUB
Аудио #2: English, 48,0 kHz, AAC LC, 2 ch, 149 kbps avg | Original
MediaInfo
Код:
Код:
General
Complete name                            : D:\iPad\Harry Potter and the Deathly Hallows Part 1\Harry.Potter.and.the.Deathly.Hallows.Part.1.2010.m4v
Format                                   : MPEG-4
Codec ID                                 : M4V
File size                                : 2.93 GiB
Duration                                 : 2h 26mn
Overall bit rate mode                    : Variable
Overall bit rate                         : 2 867 Kbps
Movie name                               : Гарри Поттер и Дары смерти: Часть 1
Performer                                : Дэвид Йэтс
Genre                                    : фэнтези, драма, детектив
Recorded date                            : UTC 2010-11-11 07:00:00
Encoded date                             : UTC 2011-11-12 07:11:16
Tagged date                              : UTC 2011-11-13 07:35:46
Writing application                      : MkvToMp4 [www.mkvtomp4.ru] version 0.217
Cover                                    : Yes
soar                                     : Дэвид Йэтс
desc                                     : Гарри Поттера ждёт самое страшное испытание в жизни — смертельная схватка с Волан-де-Мортом. Ждать помощи не от кого — Гарри одинок, как никогда…
ldes                                     : Гарри Поттера ждёт самое страшное испытание в жизни — смертельная схватка с Волан-де-Мортом. Ждать помощи не от кого — Гарри одинок, как никогда… Друзья и враги Гарри предстают в совершенно неожиданном свете. Граница между Добром и Злом становится всё призрачнее…
hdvd                                     : 1
stik                                     : 9
xid                                      : RG-Apple:vendor_id:2010-276762
iTunEXTC                                 : mpaa|PG-13|300|
iTunMOVI                                 : <?xml version="1.0" encoding="UTF-8"?> / <!DOCTYPE plist PUBLIC "-/Apple/DTD PLIST 1.0/EN" "http:/www.apple.com/DTDs/PropertyList-1.0.dtd"> / <plist version="1.0"> /  <dict> /   <key>cast</key> /   <array> /    <dict> /     <key>name</key> /     <string>Дэниэл Рэдклифф</string> /    </dict> /    <dict> /     <key>name</key> /     <string>Руперт Гринт</string> /    </dict> /    <dict> /     <key>name</key> /     <string>Эмма Уотсон</string> /    </dict> /    <dict> /     <key>name</key> /     <string>Рэйф Файнс</string> /    </dict> /    <dict> /     <key>name</key> /     <string>Алан Рикман</string> /    </dict> /    <dict> /     <key>name</key> /     <string>Хелена Бонем Картер</string> /    </dict> /    <dict> /     <key>name</key> /     <string>Том Фелтон</string> /    </dict> /    <dict> /     <key>name</key> /     <string>Гари Олдман</string> /    </dict> /    <dict> /     <key>name</key> /     <string>Майкл Гэмбон</string> /    </dict> /    <dict> /     <key>name</key> /     <string>Мэгги Смит</string> /    </dict> /   </array> /   <key>directors</key> /   <array> /    <dict> /     <key>name</key> /     <string>Дэвид Йэтс</string> /    </dict> /   </array> /   <key>producers</key> /   <array> /    <dict> /     <key>name</key> /     <string>Дэвид Баррон</string> /    </dict> /    <dict> /     <key>name</key> /     <string>Дэвид Хейман</string> /    </dict> /    <dict> /     <key>name</key> /     <string>Дж.К. Роулинг</string> /    </dict> /   </array> /   <key>screenwriters</key> /   <array> /    <dict> /     <key>name</key> /     <string>Стивен Кловз</string> /    </dict> /    <dict> /     <key>name</key> /     <string>Дж.К. Роулинг</string> /    </dict> /   </array> /  </dict> / </plist>
Video
ID                                       : 1
Format                                   : AVC
Format/Info                              : Advanced Video Codec
Format profile                           : High@L4.1
Format settings, CABAC                   : Yes
Format settings, ReFrames                : 9 frames
Codec ID                                 : avc1
Codec ID/Info                            : Advanced Video Coding
Duration                                 : 2h 26mn
Bit rate                                 : 2 550 Kbps
Maximum bit rate                         : 15.2 Mbps
Width                                    : 1 280 pixels
Height                                   : 536 pixels
Display aspect ratio                     : 2.40:1
Frame rate mode                          : Constant
Frame rate                               : 23.976 fps
Color space                              : YUV
Chroma subsampling                       : 4:2:0
Bit depth                                : 8 bits
Scan type                                : Progressive
Bits/(Pixel*Frame)                       : 0.155
Stream size                              : 2.60 GiB (89%)
Writing library                          : x264 core 116 r2057 0ba8a9c
Encoding settings                        : cabac=1 / ref=9 / deblock=1:0:0 / analyse=0x3:0x133 / me=umh / subme=9 / psy=1 / psy_rd=1.00:0.00 / mixed_ref=1 / me_range=32 / chroma_me=1 / trellis=1 / 8x8dct=1 / cqm=0 / deadzone=21,11 / fast_pskip=1 / chroma_qp_offset=-2 / threads=12 / sliced_threads=0 / nr=0 / decimate=1 / interlaced=0 / bluray_compat=0 / constrained_intra=0 / bframes=9 / b_pyramid=2 / b_adapt=1 / b_bias=0 / direct=1 / weightb=1 / open_gop=0 / weightp=2 / keyint=250 / keyint_min=23 / scenecut=40 / intra_refresh=0 / rc_lookahead=40 / rc=2pass / mbtree=1 / bitrate=2550 / ratetol=1.0 / qcomp=0.60 / qpmin=0 / qpmax=69 / qpstep=4 / cplxblur=20.0 / qblur=0.5 / ip_ratio=1.40 / aq=1:1.00
Language                                 : English
Encoded date                             : UTC 2011-11-12 07:11:16
Tagged date                              : UTC 2011-11-12 07:14:04
Audio #1
ID                                       : 2
Format                                   : AAC
Format/Info                              : Advanced Audio Codec
Format profile                           : LC
Codec ID                                 : 40
Duration                                 : 2h 26mn
Bit rate mode                            : Variable
Bit rate                                 : 163 Kbps
Maximum bit rate                         : 221 Kbps
Channel(s)                               : 2 channels
Channel positions                        : Front: L R
Sampling rate                            : 48.0 KHz
Compression mode                         : Lossy
Stream size                              : 170 MiB (6%)
Title                                    : DUB
Language                                 : Russian
Encoded date                             : UTC 2011-11-12 07:12:18
Tagged date                              : UTC 2011-11-12 07:14:04
Audio #2
ID                                       : 3
Format                                   : AAC
Format/Info                              : Advanced Audio Codec
Format profile                           : LC
Codec ID                                 : 40
Duration                                 : 2h 26mn
Bit rate mode                            : Variable
Bit rate                                 : 149 Kbps
Maximum bit rate                         : 231 Kbps
Channel(s)                               : 2 channels
Channel positions                        : Front: L R
Sampling rate                            : 48.0 KHz
Compression mode                         : Lossy
Stream size                              : 156 MiB (5%)
Title                                    : Original
Language                                 : English
Encoded date                             : UTC 2011-11-12 07:13:43
Tagged date                              : UTC 2011-11-12 07:14:04
Text #1
ID                                       : 4
Format                                   : Timed text
Muxing mode                              : sbtl
Codec ID                                 : tx3g
Duration                                 : 1h 48mn
Bit rate mode                            : Variable
Bit rate                                 : 1 bps
Stream size                              : 449 Bytes (0%)
Title                                    : Russian  [forced]
Language                                 : Russian
Encoded date                             : UTC 2011-11-12 07:14:03
Tagged date                              : UTC 2011-11-12 07:14:04
Text #2
ID                                       : 5
Format                                   : Timed text
Muxing mode                              : sbtl
Codec ID                                 : tx3g
Duration                                 : 2h 26mn
Bit rate mode                            : Variable
Bit rate                                 : 74 bps
Stream size                              : 79.1 KiB (0%)
Title                                    : Russian
Language                                 : Russian
Encoded date                             : UTC 2011-11-12 07:14:03
Tagged date                              : UTC 2011-11-12 07:14:04
Text #3
ID                                       : 6
Format                                   : Timed text
Muxing mode                              : sbtl
Codec ID                                 : tx3g
Duration                                 : 2h 26mn
Bit rate mode                            : Variable
Bit rate                                 : 49 bps
Stream size                              : 52.6 KiB (0%)
Title                                    : English SDH
Language                                 : English
Encoded date                             : UTC 2011-11-12 07:14:03
Tagged date                              : UTC 2011-11-12 07:14:04
Text #4
ID                                       : 8
Format                                   : Apple text
Codec ID                                 : text
Duration                                 : 2h 26mn
Bit rate mode                            : Constant
Bit rate                                 : 1 bps
Stream size                              : 899 Bytes (0%)
Encoded date                             : UTC 2011-11-13 07:35:35
Tagged date                              : UTC 2011-11-13 07:35:35

x264 log
x264 [info]: profile High, level 4.1
x264 [info]: frame I:2404 Avg QP:13.44 size: 79098
x264 [info]: frame P:94675 Avg QP:16.04 size: 21160
x264 [info]: frame B:113077 Avg QP:18.37 size: 5310
x264 [info]: consecutive B-frames: 21.4% 25.8% 7.8% 12.0% 24.5% 8.4% 0.0% 0.0% 0.0% 0.1%
x264 [info]: mb I I16..4: 9.7% 73.9% 16.4%
x264 [info]: mb P I16..4: 1.0% 4.2% 0.6% P16..4: 49.7% 22.5% 5.8% 0.9% 0.4% skip:14.9%
x264 [info]: mb B I16..4: 0.0% 0.2% 0.0% B16..8: 43.5% 6.5% 1.5% direct: 1.9% skip:46.3% L0:43.0% L1:51.7% BI: 5.3%
x264 [info]: 8x8 transform intra:73.0% inter:70.7%
x264 [info]: coded y,uvDC,uvAC intra: 82.2% 70.4% 45.6% inter: 26.2% 15.9% 1.5%
x264 [info]: i16 v,h,dc,p: 29% 17% 15% 39%
x264 [info]: i8 v,h,dc,ddl,ddr,vr,hd,vl,hu: 10% 6% 6% 11% 15% 13% 14% 12% 13%
x264 [info]: i4 v,h,dc,ddl,ddr,vr,hd,vl,hu: 9% 6% 4% 11% 16% 14% 14% 12% 14%
x264 [info]: i8c dc,h,v,p: 44% 27% 18% 12%
x264 [info]: Weighted P-Frames: Y:4.7% UV:2.3%
x264 [info]: ref P L0: 51.2% 6.7% 17.0% 6.8% 5.6% 4.1% 3.7% 2.0% 2.0% 0.8% 0.0%
x264 [info]: ref B L0: 77.2% 12.2% 4.7% 2.1% 1.5% 1.3% 0.8% 0.2%
x264 [info]: ref B L1: 93.2% 6.8%
x264 [info]: kb/s:2549.98
Скриншоты

Скриншоты с iPad




Вернуться к началу
 Профиль Отправить личное сообщение  
 
   Похожие торренты   Автор   Торрент   Размер 
В этой теме нет новых непрочитанных сообщений. С днем смерти / Death of Me [Ужасы, детектив, 2020] BDRip 720p, Dub [iTunes]

salma3

0 | 2

5.48 ГБ

В этой теме нет новых непрочитанных сообщений. Танец смерти / Slam Dance [триллер, детектив, 1987] BDRip 1080p, Dvo

salma3

0 | 0

10.07 ГБ

В этой теме нет новых непрочитанных сообщений. Американские боги / American Gods (Сезон 3 , Серия 1 -10 из 10) (Крис Бирн, Дэвид Слэйд) [2021, Фэнтези, драма, детектив,WEB-DLRip - HEVC 10bit - 1080p] [Нота+LostFilm +HDRezka +AlexFilm +TVShows+NewStudio+Eng]+[Subs Rus , ENG]

Враг Нароода

0 | 0

24.92 ГБ

В этой теме нет новых непрочитанных сообщений. Проект А: Часть 2 / Project A Part 2 / «A» Gai Waak II [боевик, комедия, криминал, 1987] HDRip-AVC, Dvo

salma3

0 | 1

743 МБ

В этой теме нет новых непрочитанных сообщений. Если только / If only [фэнтези, драма, комедия, 2004] BDRip 720p, Mvo

salma3

1 | 2

6.51 ГБ

В этой теме нет новых непрочитанных сообщений. Мулан / Mulan [Боевик, драма, фэнтези, 2020] BDRip 720p, Dub [iTunes]

salma3

1 | 0

5.57 ГБ

В этой теме нет новых непрочитанных сообщений. Сиротки-вампиры / Les deux orphelines vampires [ужасы, фэнтези, драма, 1997] BDRip 720p, Avo

salma3

1 | 0

5.85 ГБ


Начать новую тему Ответить на тему  [ 1 сообщение ] 




Для Мосгорсуда, Роскомнадзора и рекламодателей:: rstracker[собака]yandex.ru
cron