Торрент файл
скачать торрент магнет ссылка Добавлен: 05 янв 2013, 22:47
Размер: 2.48 ГБ
Сидеров: 7
Личеров: 5
Автор

СообщениеДобавлено: 05 янв 2013, 22:47 

Не в сети
Супермодератор
Аватара пользователя
Дата регистрации:
11 апр 2010, 18:10
Спасибо: 6068 / 7
Сообщения: 56660
id="p-25224744-1">Двадцать одно / 21«В Вегасе ты можешь стать кем угодно»

Год выпуска: 2008
Страна: США
Жанр: Криминал
Продолжительность: 02:02:41
Перевод: Профессиональный (полное дублирование)
Русские субтитры: есть

Режиссер: Роберт Лукетич / Robert Luketic

В ролях: Джим Стерджесс , Кевин Спейси , Кейт Босворт , Аарон Йу , Лиза Лапира , Джейкоб Питтс , Лоуренс Фишборн , Джек МакГи, Джош Гад , Сэм Голзари.

Описание: Карточная игра - комбинация уникальных математических расчетов, превосходных актерских талантов и хладнокровной выдержки. Карточный игрок - человек особого склада. Молодые люди решили провернуть аферу века и разорить крупнейшие казино страны на астрономическую сумму. Они решили взять Вегас! Их пятеро. Игра захватила их целиком. Их игра поразила своей виртуозностью. Они изменили ход самой игры.

Качество: BDRip Исходник: (BD Remux)
Формат: m4v
Видео кодек: H.264
Аудио кодек: AAC
Видео: 1280x528 , 23,976 кадр/сек, 2607 Кбит/сек
Аудио: AAC 148kbps 48000 Hz 2ch RUS
Аудио: AAC 139kbps 48000 Hz 2ch ENG
Субтитры: русские , английские
MediaInfo
Код:
Код:
21.m4v
Формат : MPEG-4
Идентификатор кодека : M4V
Размер файла : 2,48 Гбайт
Продолжительность : 2 ч. 2 м.
Общий поток : 2899 Кбит/сек
Название фильма : 21
Исполнитель : Robert Luketic
Жанр : Drama
Дата записи : 2008-07-22T07:00:00Z
Обложка : Yes
desc : Карточная игра — комбинация уникальных математических расчетов, превосходных актерских талантов и хладнокровной выдержки.
ldes : Карточная игра — комбинация уникальных математических расчетов, превосходных актерских талантов и хладнокровной выдержки. Карточный игрок — человек особого склада.
hdvd : 1
stik : 9
cnID : 284749108
xid : iPad:vendor_id:2008-195847
iTunEXTC : mpaa|PG-13|300|
iTunMOVI : / / / / cast / / / name / Джим Стерджесс / / / name / Кевин Спейси / / / name / Кейт Босворт / / / name / Аарон Йу / / / name / Лиза Лапира / / / name / Джейкоб Питтс / / / name / Лоуренс Фишборн / / / name / Джек МакГи / / / name / Джош Гад / / / name / Сэм Голзари / / / directors / / / name / Роберт Лукетич / / / producers / / / name / Дэна Брунетти / / / name / Майкл Де Лука / / / name / Кевин Спейси / / / screenwriters / / / name / Питер Стайнфелд / / / name / Аллан Лоб / / / name / Бен Мезрич / / / /
Видео
Идентификатор : 1
Формат : AVC
Формат/Информация : Advanced Video Codec
Профиль формата : High@L4.0
Параметр CABAC формата : Да
Параметр ReFrames формата : 9 кадры
Идентификатор кодека : avc1
Идентификатор кодека/Информация : Advanced Video Coding
Продолжительность : 2 ч. 2 м.
Вид битрейта : Переменный
Битрейт : 2607 Кбит/сек
Максимальный битрейт : 17,7 Мбит/сек
Ширина : 1280 пикс.
Высота : 528 пикс.
Соотношение сторон : 2,40:1
Режим частоты кадров : Постоянный
Частота кадров : 23,976 кадр/сек
Цветовое пространство : YUV
Подвыборка цветности : 4:2:0
Битовая глубина : 8 бит
Тип развёртки : Прогрессивная
Бит/(Пиксели*Кадры) : 0.161
Размер потока : 2,23 Гбайт (90%)
Библиотека кодирования : x264 core 80 r1376M 3feaec2
Настройки программы : cabac=1 / ref=9 / deblock=1:-2:-1 / analyse=0x3:0x113 / me=umh / subme=9 / psy=1 / psy_rd=1.0:0.1 / mixed_ref=0 / me_range=24 / chroma_me=1 / trellis=2 / 8x8dct=1 / cqm=0 / deadzone=21,11 / fast_pskip=0 / chroma_qp_offset=-3 / threads=3 / sliced_threads=0 / nr=1 / decimate=0 / mbaff=0 / constrained_intra=0 / bframes=9 / b_pyramid=0 / b_adapt=2 / b_bias=0 / direct=1 / wpredb=0 / wpredp=0 / keyint=250 / keyint_min=25 / scenecut=40 / rc_lookahead=60 / rc=2pass / mbtree=1 / bitrate=2607 / ratetol=1.0 / qcomp=0.60 / qpmin=10 / qpmax=51 / qpstep=4 / cplxblur=20.0 / qblur=0.5 / ip_ratio=1.40 / aq=1:1.00
Язык : English
Аудио #1
Идентификатор : 2
Формат : AAC
Формат/Информация : Advanced Audio Codec
Профиль формата : LC
Идентификатор кодека : 40
Продолжительность : 2 ч. 2 м.
Вид битрейта : Переменный
Битрейт : 148 Кбит/сек
Максимальный битрейт : 196 Кбит/сек
Канал(ы) : 2 канала(ов)
Расположение каналов : Front: L R
Частота : 48,0 КГц
Метод сжатия : С потерями
Размер потока : 130 Мбайт (5%)
Заголовок : Russian stereo
Язык : Russian
Аудио #2
Идентификатор : 3
Формат : AAC
Формат/Информация : Advanced Audio Codec
Профиль формата : LC
Идентификатор кодека : 40
Продолжительность : 2 ч. 2 м.
Вид битрейта : Переменный
Битрейт : 139 Кбит/сек
Максимальный битрейт : 192 Кбит/сек
Канал(ы) : 2 канала(ов)
Расположение каналов : Front: L R
Частота : 48,0 КГц
Метод сжатия : С потерями
Размер потока : 122 Мбайт (5%)
Заголовок : English stereo
Язык : English
Текст #1
Идентификатор : 4
Формат : Timed text
Режим смешивания : sbtl
Идентификатор кодека : tx3g
Продолжительность : 1 ч. 58 м.
Вид битрейта : Переменный
Битрейт : 101 бит/сек
Размер потока : 88,2 Кбайт (0%)
Язык : English
Текст #2
Идентификатор : 5
Формат : Timed text
Режим смешивания : sbtl
Идентификатор кодека : tx3g
Продолжительность : 1 ч. 58 м.
Вид битрейта : Переменный
Битрейт : 68 бит/сек
Размер потока : 58,9 Кбайт (0%)
Язык : English

Скриншоты



Вернуться к началу
 Профиль Отправить личное сообщение  
 
   Похожие торренты   Автор   Торрент   Размер 
В этой теме нет новых непрочитанных сообщений. Морская прогулка / Donkey Punch [триллер, драма, криминал, 2008] BDRip 720p, Dvo

salma3

11 | 0

3.72 ГБ

В этой теме нет новых непрочитанных сообщений. Преступник / Felon (Рик Роман Во) [2008 г., криминал, драма, BDRip 720p] Mvo + Eng

zorgi

4 | 0

3 ГБ

В этой теме нет новых непрочитанных сообщений. От заката до рассвета / From Dusk Till Dawn (Роберт Родригес) [1996 г., ужасы, боевик, фэнтези, триллер, комедия, криминал, BDRip-HEVC 1080p | ITA Transfer] P, A

zorgi

15 | 4

15.21 ГБ

В этой теме нет новых непрочитанных сообщений. Прослушка / The Wire [S01-05] [триллер, драма, криминал, 2002-2008] BDRip, Mvo [FoxCrime]

salma3

0 | 0

54.86 ГБ

В этой теме нет новых непрочитанных сообщений. Адмиралъ (Андрей Кравчук) [2008 г., драма, история, военный, BDRip 720p] Лицензия

zorgi

1 | 0

6.8 ГБ

В этой теме нет новых непрочитанных сообщений. Прослушка / The Wire [1-60 из 60] [криминал, драма, детектив, 2002-2008] BDRip-HEVC 1080p, Avo [Михаил Яроцкий (kyberpunk)]

salma3

0 | 0

184.9 ГБ

В этой теме нет новых непрочитанных сообщений. Шулера / Rounders [драма, криминал, 1998] BDRip 720p, Mvo

salma3

1 | 0

6.56 ГБ


Начать новую тему Ответить на тему  [ 1 сообщение ] 




Для Мосгорсуда, Роскомнадзора и рекламодателей:: rstracker[собака]yandex.ru
cron