Торрент файл
скачать торрент магнет ссылка Добавлен: 03 июл 2019, 21:38
Размер: 407.19 МБ
Сидеров: 1
Личеров: 0
Статус: (salma3)
Автор

СообщениеДобавлено: 03 июл 2019, 21:38 

Страна: США
Производство: Back Lot Pictures, KGB Media, Paper Street Films
Год выпуска: 2015
Жанр: Драма
Режиссёр: Остин Старк
В ролях: Николас Кейдж, Сара Полсон, Конни Нильсен, Уенделл Пирс, Брайан Бэтт, Питер Фонда, Фредрик Лене, Керри Кехилл, Дэна Гурье, Ванета Уолмсли
Перевод: Профессиональный (дублированный) iTunes

Описание: Конгрессмен Колин Прайс безумно увлечен двумя вещами: политикой и женщинами. После аварии на нефтяной платформе его жизнь полностью меняется. Камеры наблюдения ловят его с темнокожей Люси, женой одного из пострадавших в аварии. Разразившийся сексуальный скандал ставит под угрозу не только карьеру Прайса, но и всю его жизнь. Ложь — лучший политический союзник, но что делать, когда дело касается любви?…



Качество: HDRip
Продолжительность: 01:30:08
Формат: MP4
Видео кодек: H.264
Аудио кодек: AAC-LC
Свойства видео: 640x268 (2:39:1), 23.976 fps, 500 kbps (0.122 bit/pixel)
Свойства аудио: 48.0 KHz, 2 ch, 128 kbps
General
Complete name : Беглец.The.Runner.2015.HDRip.mp4
Format : MPEG-4
Format profile : Base Media
Codec ID : isom
File size : 407 MiB
Duration : 1h 30mn
Overall bit rate mode : Variable
Overall bit rate : 632 Kbps
Encoded date : UTC 2015-12-20 01:41:22
Tagged date : UTC 2015-12-20 01:41:22
Video
ID : 1
Format : AVC
Format/Info : Advanced Video Codec
Format profile : High@L4.1
Format settings, CABAC : Yes
Format settings, ReFrames : 9 frames
Codec ID : avc1
Codec ID/Info : Advanced Video Coding
Duration : 1h 30mn
Bit rate : 500 Kbps
Maximum bit rate : 1 876 Kbps
Width : 640 pixels
Height : 268 pixels
Display aspect ratio : 2.40:1
Frame rate mode : Constant
Frame rate : 23.976 fps
Color space : YUV
Chroma subsampling : 4:2:0
Bit depth : 8 bits
Scan type : Progressive
Bits/(Pixel*Frame) : 0.122
Stream size : 322 MiB (79%)
Title : 264@GPAC0.5.2-DEV-rev248-g39d5978-master
Writing library : x264 core 146 r2538 121396c
Encoding settings : cabac=1 / ref=9 / deblock=1:-3:-3 / analyse=0x3:0x113 / me=umh / subme=11 / psy=1 / psy_rd=1.00:0.00 / mixed_ref=1 / me_range=32 / chroma_me=1 / trellis=2 / 8x8dct=1 / cqm=0 / deadzone=21,11 / fast_pskip=0 / chroma_qp_offset=-2 / threads=6 / lookahead_threads=1 / sliced_threads=0 / nr=0 / decimate=0 / interlaced=0 / bluray_compat=0 / constrained_intra=0 / bframes=9 / b_pyramid=2 / b_adapt=2 / b_bias=0 / direct=3 / weightb=1 / open_gop=0 / weightp=2 / keyint=240 / keyint_min=23 / scenecut=40 / intra_refresh=0 / rc=2pass / mbtree=0 / bitrate=500 / ratetol=1.0 / qcomp=0.60 / qpmin=0 / qpmax=69 / qpstep=4 / cplxblur=20.0 / qblur=0.5 / ip_ratio=1.40 / pb_ratio=1.30 / aq=1:1.00
Encoded date : UTC 2015-12-20 01:41:22
Tagged date : UTC 2015-12-20 01:41:36
Audio
ID : 2
Format : AAC
Format/Info : Advanced Audio Codec
Format profile : LC
Codec ID : 40
Duration : 1h 30mn
Bit rate mode : Variable
Bit rate : 128 Kbps
Maximum bit rate : 155 Kbps
Channel(s) : 2 channels
Channel positions : Front: L R
Sampling rate : 48.0 KHz
Compression mode : Lossy
Stream size : 82.4 MiB (20%)
Encoded date : UTC 2015-12-19 23:32:13
Tagged date : UTC 2015-12-20 01:41:36



Вернуться к началу
  
 
   Похожие торренты   Автор   Торрент   Размер 
В этой теме нет новых непрочитанных сообщений. Индеец-беглец / The Indian Runner [драма, 1991] HDRip, Dvo [ТНТ]

salma3

30 | 5

1.45 ГБ

В этой теме нет новых непрочитанных сообщений. Как не стать президентом / The Front Runner [Драма, биография, история, 2018] HDRip, Mvo [iTunes]

salma3

0 | 0

1.46 ГБ

В этой теме нет новых непрочитанных сообщений. Как не стать президентом / The Front Runner [Драма, биография, история, 2018] BDRip, Mvo [iTunes]

salma3

0 | 0

2.13 ГБ

В этой теме нет новых непрочитанных сообщений. Ночной беглец / Run All Night [Боевик, триллер, драма, 2015] WEB-DL 2160p, Dub

salma3

0 | 0

27.22 ГБ

В этой теме нет новых непрочитанных сообщений. Как не стать президентом / The Front Runner [Драма, биография, история, 2018] BDRip 1080p, Mvo [iTunes]

salma3

0 | 0

8.25 ГБ

В этой теме нет новых непрочитанных сообщений. Как не стать президентом / The Front Runner [Драма, биография, история, 2018] BDRip 720p, Mvo [iTunes]

salma3

0 | 0

7.09 ГБ

В этой теме нет новых непрочитанных сообщений. Ночной беглец / Run All Night [боевик, криминал, драма, 2015] BDRip, Avo [Гаврилов]

salma3

78 | 5

1.46 ГБ


Начать новую тему Ответить на тему  [ 1 сообщение ] 




Для Мосгорсуда, Роскомнадзора и рекламодателей:: mosgorsud-torrent[собачка]yandex.ru
cron