Торрент файл
скачать торрент магнет ссылка Добавлен: 19 фев 2018, 21:48
Размер: 1.83 ГБ
Сидеров: 0
Личеров: 0
Статус: (salma3)
Автор

СообщениеДобавлено: 19 фев 2018, 21:48 

Не в сети
Супермодератор
Аватара пользователя
Дата регистрации:
15 фев 2012, 16:44
Возраст: 28
Спасибо: 7204 / 2147
Сообщения: 65100
Год выхода: 2017
Жанр: Детектив
Режиссер: Виталий Воробьёв

В ролях: Павел Майков, Дарья Мороз, Игорь Скляр, Сергей Колтаков, Вильма Кутавичюте, Дмитрий Муляр, Андрей Смирнов, Дмитрий Астрахан, Анастасия Макеева, Юлия Рутберг, Владимир Щербаков, Дарья Носик, Станислав Стрелков.

О фильме:
1979 год. В приморском городе, в рыбном порту при загадочных обстоятельствах погибает следователь ОБХСС Михаил Федоров. Его лучший друг и коллега Александр Костенко узнаёт о том, что гибель Федорова не была несчастным случаем. Он было сам берется за расследование, но неожиданно без объяснения причин его отстраняют. В поисках справедливости, Костенко летит в Москву на приём к генеральному прокурору. В аэропорту Шереметьево он становится невольным свидетелем нелегального провоза крупной суммы в валюте. Бдительный Костенко инициирует задержание и арест “валютного курьера» - руководящего работника Министерства Рыбного Хозяйства Аркадия Липмана. Своей профессиональной хваткой, редкой принципиальностью и дотошностью Костенко привлекает внимание не только руководства Генеральной прокуратуры СССР, но партийных чиновников и руководства Минрыбхоза, имеющих непосредственное отношение к валютному скандалу…



Страна: Россия
Продолжительность: 8 х ~00:52:00
Перевод: Не требуется

Файл
Формат: MP4
Качество: WEB-DLRip | КПК
Видео: MPEG-4 AVC (x264), 640x360, ~500 kbps, 25.000 fps
Аудио: AAC LC, 48.0 KHz, 2 ch, 128 Kbps
Субтитры: Нет

Семпл

Complete name : F:КИНОIkra.S01.2017.AVC.WEB-DLRip.KPK.GFIkra.s01e02.2017.AVC.WEB-DLRip.KPK.GF.mp4
Format : MPEG-4
Codec ID : M4V (isom/iso2/avc1)
File size : 239 MiB
Duration : 52 min 46 s
Overall bit rate mode : Variable
Overall bit rate : 634 kb/s
Writing application : Lavf53.19.0

Video
ID : 1
Format : AVC
Format/Info : Advanced Video Codec
Format profile : High@L4.1
Format settings, CABAC : Yes
Format settings, RefFrames : 8 frames
Codec ID : avc1
Codec ID/Info : Advanced Video Coding
Duration : 52 min 46 s
Bit rate : 500 kb/s
Width : 640 pixels
Height : 360 pixels
Display aspect ratio : 16:9
Frame rate mode : Constant
Frame rate : 25.000 FPS
Color space : YUV
Chroma subsampling : 4:2:0
Bit depth : 8 bits
Scan type : Progressive
Bits/(Pixel*Frame) : 0.087
Stream size : 189 MiB (79%)
Writing library : x264 core 148 r2638 7599210
Encoding settings : cabac=1 / ref=8 / deblock=1:-1:-1 / analyse=0x3:0x133 / me=umh / subme=10 / psy=1 / psy_rd=1.00:0.00 / mixed_ref=1 / me_range=24 / chroma_me=1 / trellis=2 / 8x8dct=1 / cqm=0 / deadzone=21,11 / fast_pskip=1 / chroma_qp_offset=-2 / threads=6 / lookahead_threads=1 / sliced_threads=0 / nr=0 / decimate=1 / interlaced=0 / bluray_compat=0 / constrained_intra=0 / bframes=8 / b_pyramid=2 / b_adapt=2 / b_bias=0 / direct=3 / weightb=1 / open_gop=0 / weightp=2 / keyint=250 / keyint_min=126 / scenecut=40 / intra_refresh=0 / rc_lookahead=40 / rc=2pass / mbtree=1 / bitrate=500 / ratetol=1.0 / qcomp=0.60 / qpmin=0 / qpmax=69 / qpstep=4 / cplxblur=20.0 / qblur=0.5 / ip_ratio=1.40 / aq=1:1.00
Menus : 3

Audio
ID : 2
Format : AAC
Format/Info : Advanced Audio Codec
Format profile : LC
Codec ID : 40
Duration : 52 min 46 s
Bit rate mode : Variable
Bit rate : 128 kb/s
Channel(s) : 2 channels
Channel positions : Front: L R
Sampling rate : 48.0 kHz
Frame rate : 46.875 FPS (1024 SPF)
Compression mode : Lossy
Stream size : 48.3 MiB (20%)
Default : Yes
Alternate group : 1
Menus : 3

Релиз от:


_________________
Проголосуй за трекер Открытый торрент трекер - RUS-MEDIA.ORG

Проголосуй Открытый торрент трекер - RUS-MEDIA.ORG


Вернуться к началу
 Профиль Отправить личное сообщение  
 
   Похожие торренты   Автор   Торрент   Размер 
В этой теме нет новых непрочитанных сообщений. Икра [01-08 из 08] [Детектив, 2017] HDTVRip

salma3

384 | 147

5.7 ГБ

В этой теме нет новых непрочитанных сообщений. Икра [01-08 из 08] [Детектив, 2017] WEBRip

salma3

52 | 17

4.35 ГБ

В этой теме нет новых непрочитанных сообщений. Икра [01-08 из 08] [Детектив, 2017] HDTV 1080i

salma3

0 | 0

26.6 ГБ

В этой теме нет новых непрочитанных сообщений. Лишний [01-04 из 04] [Детектив, 2017] WEB-DLRip-AVC

salma3

45 | 11

2.41 ГБ

В этой теме нет новых непрочитанных сообщений. Спецы [01-20 из 20] [Детектив, 2017] WEB-DLRip-AVC

salma3

76 | 55

10.83 ГБ

В этой теме нет новых непрочитанных сообщений. Спецы [01-20 из 20] [Детектив, 2017] WEB-DLRip-AVC

salma3

40 | 31

10.83 ГБ

В этой теме нет новых непрочитанных сообщений. Три в одном [01-02 из 02] [Детектив, 2017] WEB-DLRip

salma3

360 | 67

1.17 ГБ


Начать новую тему Ответить на тему  [ 1 сообщение ] 




Для Мосгорсуда, Роскомнадзора и рекламодателей:: mosgorsud-torrent[собачка]yandex.ru
cron