Торрент файл
скачать торрент магнет ссылка Добавлен: 07 янв 2018, 16:58
Размер: 10.59 ГБ
Сидеров: 4
Личеров: 13
Статус: (salma3)
Автор

СообщениеДобавлено: 07 янв 2018, 16:58 

Не в сети
Супермодератор
Аватара пользователя
Дата регистрации:
15 фев 2012, 16:44
Возраст: 28
Спасибо: 7203 / 2147
Сообщения: 64972
Год выхода: 2014
Жанр: Ужасы, фантастика
Режиссер: Джон Хайамс, Карл Шэфер

В ролях: Хэролд Перрино, Том Эверетт Скотт, ДиДжей Куаллс, Майкл Уэлш, Келлита Смит, Анастасия Баранова, Расселл Ходжкинсон, Кит Аллан

О фильме:
Спустя три года после того, как вирус зомби распространился и выпотрошил всю страну, команда героев должна перевезти единственного известного оставшегося в живых от действия чумы из Нью-Йорка в Калифорнию, где последняя функционирующая вирусная лаборатория ждет его крови. Хотя антитела, которые он несет, являются последней надеждой мира получить вакцину, он скрывает мрачную тайну, которая угрожает им всем. Выживание человечества под угрозой, когда разношерстная группа предпринимает путешествие длиной в пять тысяч километров по опустошенной, постапокалиптической Америке.



Страна: США
Продолжительность: 55 x ~ 00:43:00
Перевод: Профессиональный (многоголосый, закадровый) [LostFilm]

Файл
Формат: MP4
Качество: WEB-DLRip | КПК
Видео: MPEG-4 AVC (x264), 640x360, ~500 kbps, 23.976 fps
Аудио: AAC LC, 48.0 KHz, 2 ch, 128 Kbps
Субтитры: Нет

Семпл

Complete name : E:KinoNaciya.Z.AVC.KPK.GFNaciya.Z.S01.2014.AVC.WEB-DLRip.KPK.LF.GFNaciya.Z.s01e01.2014.AVC.WEB-DLRip.KPK.LF.GF.mp4
Format : MPEG-4
Codec ID : M4V
File size : 196 MiB
Duration : 43mn 10s
Overall bit rate mode : Variable
Overall bit rate : 634 Kbps
Writing application : Lavf53.19.0

Video
ID : 1
Format : AVC
Format/Info : Advanced Video Codec
Format profile : High@L4.1
Format settings, CABAC : Yes
Format settings, ReFrames : 8 frames
Codec ID : avc1
Codec ID/Info : Advanced Video Coding
Duration : 43mn 10s
Source duration : 14mn 32s
Bit rate : 500 Kbps
Width : 640 pixels
Height : 360 pixels
Display aspect ratio : 16:9
Frame rate mode : Constant
Frame rate : 23.976 fps
Color space : YUV
Chroma subsampling : 4:2:0
Bit depth : 8 bits
Scan type : Progressive
Bits/(Pixel*Frame) : 0.091
Stream size : 154 MiB (79%)
Source stream size : 154 MiB (79%)
Writing library : x264 core 130 r2273 b3065e6
Encoding settings : cabac=1 / ref=8 / deblock=1:-2:-2 / analyse=0x3:0x133 / me=umh / subme=10 / psy=1 / psy_rd=1.00:0.00 / mixed_ref=1 / me_range=24 / chroma_me=1 / trellis=2 / 8x8dct=1 / cqm=0 / deadzone=21,11 / fast_pskip=1 / chroma_qp_offset=-2 / threads=12 / lookahead_threads=2 / sliced_threads=0 / nr=0 / decimate=0 / interlaced=0 / bluray_compat=0 / constrained_intra=0 / bframes=8 / b_pyramid=2 / b_adapt=2 / b_bias=0 / direct=3 / weightb=1 / open_gop=0 / weightp=2 / keyint=240 / keyint_min=121 / scenecut=40 / intra_refresh=0 / rc_lookahead=40 / rc=2pass / mbtree=1 / bitrate=500 / ratetol=1.0 / qcomp=0.60 / qpmin=0 / qpmax=69 / qpstep=4 / cplxblur=20.0 / qblur=0.5 / ip_ratio=1.40 / aq=1:1.00
mdhd_Duration : 2590467

Audio
ID : 2
Format : AAC
Format/Info : Advanced Audio Codec
Format profile : LC
Codec ID : 40
Duration : 43mn 10s
Bit rate mode : Variable
Bit rate : 128 Kbps
Channel(s) : 2 channels
Channel positions : Front: L R
Sampling rate : 48.0 KHz
Compression mode : Lossy
Stream size : 39.5 MiB (20%)

Релиз от:


_________________
Проголосуй за трекер Открытый торрент трекер - RUS-MEDIA.ORG

Проголосуй Открытый торрент трекер - RUS-MEDIA.ORG


Вернуться к началу
 Профиль Отправить личное сообщение  
 
   Похожие торренты   Автор   Торрент   Размер 
В этой теме нет новых непрочитанных сообщений. Нация Z / Z Nation [S01-04] [Ужасы, фантастика, боевик, 2014-2017] WEB-DLRip, Mvo [LostFilm]

salma3

5 | 30

34.77 ГБ

В этой теме нет новых непрочитанных сообщений. Нация Z / Z Nation [S01-03] [Боевик, Драма, Ужасы, Фантастика, 2014-2016] WEB-DLRip, Mvo [LostFilm]

salma3

30 | 50

26.84 ГБ

В этой теме нет новых непрочитанных сообщений. Нация Z / Z Nation / 4 сезон 1-13 серии из 13 [ужасы, фантастика, боевик, 2014] WEB-DLRip, Mvo [LostFilm]

salma3

0 | 0

6.36 ГБ

В этой теме нет новых непрочитанных сообщений. Нация Z / Z Nation [S01-02] (Джон Хайамс, Абрам Кокс, Рэйчел Голденберг) [ужасы, фантастика, боевик, 2014-2015] WEB-DLRip 720p, Mvo [LostFilm]

Dracon

22 | 107

36.03 ГБ

В этой теме нет новых непрочитанных сообщений. Нация Z / Z Nation [02х01-15 из 15] [ужасы, фантастика, боевик, 2015] WEB-DLRip, Mvo [LostFilm]

Dracon

229 | 139

8.06 ГБ

В этой теме нет новых непрочитанных сообщений. Нация Z / Z Nation [02х01-15 из 15] [ужасы, фантастика, боевик, 2015] WEB-DLRip 1080p, Mvo [LostFilm]

Dracon

47 | 31

26.69 ГБ

В этой теме нет новых непрочитанных сообщений. Нация Z / Z Nation / 3 сезон 1-15 серии из 15 [Боевик, Драма, Ужасы, Фантастика, 2016] WEB-DLRip, Mvo [LostFilm]

salma3

313 | 440

7.33 ГБ


Начать новую тему Ответить на тему  [ 1 сообщение ] 




Для Мосгорсуда, Роскомнадзора и рекламодателей:: mosgorsud-torrent[собачка]yandex.ru
cron