Торрент файл
скачать торрент магнет ссылка Добавлен: 04 янв 2018, 13:38
Размер: 2.54 ГБ
Сидеров: 26
Личеров: 14
Автор

СообщениеДобавлено: 04 янв 2018, 13:38 

Не в сети
Супермодератор
Аватара пользователя
Дата регистрации:
15 фев 2012, 16:44
Возраст: 28
Спасибо: 7290 / 2147
Сообщения: 70396
Год выхода: 2015
Жанр: Драма
Режиссер: Пэрис Барклай, Билл Джирхарт, Кари Скогланд

В ролях: Даррен Эванс, Этан Гриффитс, Ли Джонс, Стивен Мойер, Тимоти В. Мерфи, Элен Риз, Кэти Сагал, Дэнни Сапани, Флора Спенсер-Лонгхерст, Сэм Спруэлл

О фильме:
Рыцарь в армии короля Эдуарда I, сломленный ужасами войны, даёт обет никогда больше не браться за оружие. Но когда насилие и несправедливость находят его снова, он вынужден взять в руки самый кровавый меч из всех: меч палача.



Страна: США
Продолжительность: 10 x ~ 00:52:00
Перевод: Профессиональный (многоголосый, закадровый) [NewStudio]

Файл
Формат: MP4
Качество: WEB-DLRip | КПК
Видео: MPEG-4 AVC (x264), 640x360, ~500 kbps, 23.976 fps
Аудио: AAC LC, 48.0 KHz, 2 ch, 128 Kbps

Семпл

Complete name : E:KinoPalach.AVC.KPK.GFPalach.S01.2015.AVC.WEB-DLRip.KPK.NS.GFPalach.s01e02.2015.AVC.WEB-DLRip.KPK.NS.GF.mp4
Format : MPEG-4
Codec ID : M4V (isom/iso2/avc1)
File size : 233 MiB
Duration : 51 min 20 s
Overall bit rate mode : Variable
Overall bit rate : 634 kb/s
Writing application : Lavf53.19.0

Video
ID : 1
Format : AVC
Format/Info : Advanced Video Codec
Format profile : High@L4.1
Format settings, CABAC : Yes
Format settings, ReFrames : 8 frames
Codec ID : avc1
Codec ID/Info : Advanced Video Coding
Duration : 51 min 20 s
Source duration : 22 min 42 s
Bit rate : 500 kb/s
Width : 640 pixels
Height : 360 pixels
Display aspect ratio : 16:9
Frame rate mode : Constant
Frame rate : 23.976 FPS
Color space : YUV
Chroma subsampling : 4:2:0
Bit depth : 8 bits
Scan type : Progressive
Bits/(Pixel*Frame) : 0.091
Stream size : 184 MiB (79%)
Source stream size : 184 MiB (79%)
Writing library : x264 core 146 r2538 121396c
Encoding settings : cabac=1 / ref=8 / deblock=1:-2:-2 / analyse=0x3:0x133 / me=umh / subme=10 / psy=1 / psy_rd=1.00:0.00 / mixed_ref=1 / me_range=24 / chroma_me=1 / trellis=2 / 8x8dct=1 / cqm=0 / deadzone=21,11 / fast_pskip=1 / chroma_qp_offset=-2 / threads=12 / lookahead_threads=2 / sliced_threads=0 / nr=0 / decimate=0 / interlaced=0 / bluray_compat=0 / constrained_intra=0 / bframes=8 / b_pyramid=2 / b_adapt=2 / b_bias=0 / direct=3 / weightb=1 / open_gop=0 / weightp=2 / keyint=240 / keyint_min=121 / scenecut=40 / intra_refresh=0 / rc_lookahead=40 / rc=2pass / mbtree=1 / bitrate=500 / ratetol=1.0 / qcomp=0.60 / qpmin=0 / qpmax=69 / qpstep=4 / cplxblur=20.0 / qblur=0.5 / ip_ratio=1.40 / aq=1:1.00
Menus : 3
mdhd_Duration : 3080749

Audio
ID : 2
Format : AAC
Format/Info : Advanced Audio Codec
Format profile : LC
Codec ID : 40
Duration : 51 min 20 s
Bit rate mode : Variable
Bit rate : 128 kb/s
Channel(s) : 2 channels
Channel positions : Front: L R
Sampling rate : 48.0 kHz
Frame rate : 46.875 FPS (1024 spf)
Compression mode : Lossy
Stream size : 47.0 MiB (20%)
Default : Yes
Alternate group : 1
Menus : 3

Релиз от:


_________________
Проголосуй за трекер Открытый торрент трекер - RUS-MEDIA.ORG

Проголосуй Открытый торрент трекер - RUS-MEDIA.ORG


Вернуться к началу
 Профиль Отправить личное сообщение  
 
   Похожие торренты   Автор   Торрент   Размер 
В этой теме нет новых непрочитанных сообщений. Палач / The Bastard Executioner [01x01-10 из 10] (Пэрис Барклай, Билл Джирхарт, Кари Скогланд) [драма, 2015] WEB-DLRip [NewStudio]

Dracon

138 | 282

6.53 ГБ

В этой теме нет новых непрочитанных сообщений. Палач / The Bastard Executioner [01x01-10 из 10] (Пэрис Барклай, Билл Джирхарт, Кари Скогланд) [драма, 2015] WEB-DL 1080p [NewStudio]

Dracon

2 | 4

23.46 ГБ

В этой теме нет новых непрочитанных сообщений. Палач / The Bastard Executioner [01x01-10 из 10] (Пэрис Барклай, Билл Джирхарт, Кари Скогланд) [драма, 2015] WEB-DL 720p [NewStudio]

Dracon

14 | 48

19.21 ГБ

В этой теме нет новых непрочитанных сообщений. Палач / The Executioner [драма, триллер, 1970] DVDRip, Mvo

salma3

7 | 0

1.45 ГБ

В этой теме нет новых непрочитанных сообщений. Зверинец / Zoo / 2 сезон 1-13 серии из 13 [триллер, драма, 2015] WEB-DLRip, Mvo [NewStudio]

salma3

123 | 70

6.36 ГБ

В этой теме нет новых непрочитанных сообщений. Колония / Colony [01х01-10 из 10] [Драма, Фантастика, 2015] WEB-DLRip, Mvo [NewStudio]

salma3

367 | 136

5.34 ГБ

В этой теме нет новых непрочитанных сообщений. Куантико / Quantico [01х01-16 из 20] (Марк Манден) [Драма, 2015] WEB-DLRip, Mvo [NewStudio]

Dracon

11 | 9

8.59 ГБ


Начать новую тему Ответить на тему  [ 1 сообщение ] 




Для Мосгорсуда, Роскомнадзора и рекламодателей:: mosgorsud-torrent[собачка]yandex.ru
cron