Торрент файл
скачать торрент магнет ссылка Добавлен: 25 апр 2013, 00:44
Размер: 855.37 МБ
Сидеров: 0
Личеров: 3
Автор

СообщениеДобавлено: 25 апр 2013, 00:48 

Не в сети
Аватара пользователя
Дата регистрации:
05 мар 2013, 00:51
Спасибо: 1 / 0
Сообщения: 5
«Твой разум - место преступления.»



Страна: США, Великобритания
Студия: Legendary Pictures, Syncopy, Warner Bros. Pictures
Жанр: фантастика, боевик, триллер, драма, детектив, ...
Год выпуска: 2010
Продолжительность: 02:28:08

Перевод: Русский профессиональный (дублированный)
Оригинальная аудиодорожка: отсутствует
Cубтитры: отсутсвуют

Режиссер: Кристофер Нолан (Christopher Nolan)
В ролях: Леонардо ДиКаприо, Джозеф Гордон-Левитт, Эллен Пейдж, Кен Ватанабе, Марион Котийяр, Том Харди, Киллиан Мёрфи, Том еренджер, Майкл Кейн, Дилип Рао, ...

Описание: Кобб — талантливый вор, лучший из лучших в опасном искусстве извлечения: он крадет ценные секреты из глубин подсознания во время сна, когда человеческий разум наиболее уязвим. Редкие способности Кобба сделали его ценным игроком в привычном к предательству мире промышленного шпионажа, но они же превратили его в извечного беглеца и лишили всего, что он когда-либо любил.

И вот у Кобба появляется шанс исправить ошибки. Его последнее дело может вернуть все назад, но для этого ему нужно совершить невозможное — инициацию. Вместо идеальной кражи Кобб и его команда спецов должны будут провернуть обратное. Теперь их задача — не украсть идею, а внедрить ее. Если у них получится, это и станет идеальным преступлением.

Но никакое планирование или мастерство не могут подготовить команду к встрече с опасным противником, который, кажется, предугадывает каждый их ход. Врагом, увидеть которого мог бы лишь Кобб.

Фильм на Кинопоиске

Качество: BDRip
Контейнер: mp4
Видео: XviD / MPEG4 Video / 640 x 266 / 2,40:1 / VBR / 23,976 fps
Аудио: AAC / 2 ch / VBR / Русский дубляж

Код:
Общее
Полное имя                               : Начало. Inception. США. 2010 [BDRip].mp4
Формат                                   : MPEG-4
Профиль формата                          : Base Media / Version 2
Идентификатор кодека                     : mp42
Размер файла                             : 855 Мбайт
Продолжительность                        : 2 ч. 28 м.
Режим общего битрейта                    : Переменный
Общий поток                              : 807 Кбит/сек
Дата кодирования                         : UTC 2013-04-21 18:03:20
Дата пометки                             : UTC 2013-04-21 18:03:20
Программа кодирования                    : Yamb 2.1.0.0 [http://yamb.unite-video.com]

Видео
Идентификатор                            : 201
Формат                                   : MPEG-4 Visual
Профиль формата                          : Simple@L3
Параметр BVOP формата                    : Нет
Параметр QPel формата                    : Нет
Параметр GMC формата                     : Без точки перехода
Параметр матрицы формата                 : Default (H.263)
Идентификатор кодека                     : 20
Продолжительность                        : 2 ч. 28 м.
Вид битрейта                             : Переменный
Битрейт                                  : 691 Кбит/сек
Максимальный битрейт                     : 8006 Кбит/сек
Ширина                                   : 640 пикселей
Высота                                   : 266 пикселей
Соотношение сторон                       : 2,40:1
Режим частоты кадров                     : Постоянный
Частота кадров                           : 23,976 кадра/сек
Цветовое пространство                    : YUV
Субдискретизация насыщенности            : 4:2:0
Битовая глубина                          : 8 бит
Тип развёртки                            : Прогрессивная
Метод сжатия                             : С потерями
Бит/(Пиксели*Кадры)                      : 0.169
Размер потока                            : 733 Мбайт (86%)
Библиотека кодирования                   : XviD 64
Дата кодирования                         : UTC 2013-04-21 18:03:20
Дата пометки                             : UTC 2013-04-21 18:04:01

Аудио
Идентификатор                            : 101
Формат                                   : AAC
Формат/Информация                        : Advanced Audio Codec
Профиль формата                          : LC
Идентификатор кодека                     : 40
Продолжительность                        : 2 ч. 28 м.
Вид битрейта                             : Переменный
Битрейт                                  : 113 Кбит/сек
Максимальный битрейт                     : 182 Кбит/сек
Каналы                                   : 2 канала
Расположение каналов                     : Front: L R
Частота                                  : 48,0 КГц
Метод сжатия                             : С потерями
Размер потока                            : 120 Мбайт (14%)
Дата кодирования                         : UTC 2013-04-21 18:03:55
Дата пометки                             : UTC 2013-04-21 18:04:01




Вернуться к началу
 Профиль Отправить личное сообщение  
 
   Похожие торренты   Автор   Торрент   Размер 
В этой теме нет новых непрочитанных сообщений. Начало / Inception [Фантастика, боевик, триллер, 2010] UHD Blu-ray 2160p, Dub [4K]

salma3

0 | 0

86.12 ГБ

В этой теме нет новых непрочитанных сообщений. Начало / Inception [Фантастика, боевик, триллер, 2010] BDRemux 1080p, Dub

salma3

16 | 57

49.28 ГБ

В этой теме нет новых непрочитанных сообщений. Бэтмен: Начало / Batman Begins [боевик, приключения, фантастика, драма, 2005] BDRip-AVC, Dub+Sub

salma3

63 | 12

1.46 ГБ

В этой теме нет новых непрочитанных сообщений. Бэтмен: Начало / Batman Begins [боевик, приключения, фантастика, драма, 2005] BDRip-AVC, Dub+Sub

salma3

40 | 9

2.91 ГБ

В этой теме нет новых непрочитанных сообщений. Люди Икс: Начало. Росомаха / X-Men Origins: Wolverine [фантастика, боевик, триллер, 2009] BDRip-HEVC 1080p, Dub

salma3

0 | 0

5.49 ГБ

В этой теме нет новых непрочитанных сообщений. Рэмпейдж / Rampage [фантастика, боевик, приключения, 2018] BDRip 1080p, Dub [Лицензия] [3D-Video]

salma3

198 | 38

9.2 ГБ

В этой теме нет новых непрочитанных сообщений. Гадкий я 3 / Despicable Me 3 [Мультфильм, Фантастика, Боевик, 2017] BDRip 1080p, Dub [3D-Video] [iTunes]

salma3

163 | 140

7.97 ГБ


Начать новую тему Ответить на тему  [ 1 сообщение ] 




Для Мосгорсуда, Роскомнадзора и рекламодателей:: mosgorsud-torrent[собачка]yandex.ru
cron