COVID-19 - Последняя информация о коронавирусе на сайте Минздрава




Торрент файл
скачать торрент магнет ссылка Добавлен: 26 янв 2012, 20:53
Размер: 2.4 ГБ
Сидеров: 12
Личеров: 8
Автор

СообщениеДобавлено: 26 янв 2012, 20:53 

Не в сети
Супермодератор
Аватара пользователя
Дата регистрации:
11 апр 2010, 18:10
Спасибо: 6060 / 7
Сообщения: 56660
Основы финансовой грамотности - Форекс. Все секреты в одном месте.


Год выпуска: 2011
Жанр: Мультимедийный диск
Разработчик: Окишев Игорь
Сайт разработчика: pro-mani.ru
Язык интерфейса: Русский
Платформа: Windows 98, Me, 2000, XP, Vista, 7
Системные требования: Pentium III 500 МГц и выше, 128 Mb ОЗУ, SVGA видеоплата, DVD-ROM, MS Windows - совместимая звуковая карта, Microsoft Windows 98/Me/2000/XP и выше.Рекомендуемые системные требования: MS Windows 2000/XP/Vista; процессор Pentium IV, 1,5 ГГц, 512 Мб ОЗУ, поддержка разрешения 1024x768 пикселей, звуковая карта 16 бит, DVD-ROM, стереофонические колонки или наушники.
Описание: Новый мультимедийный диск обучающий основам финансовой грамотности. В нем собрано все, что может понадобится любому трейдеру, независимо от того новичок он, или уже опытен.
General
Complete name : F:\Copy of Book\CD_Root\AutoPlay\Videos\Стоп Лосс Ноль.avi
Format : AVI
Format/Info : Audio Video Interleave
File size : 12.3 MiB
Duration : 2mn 54s
Overall bit rate : 589 Kbps

Video
Format : TechSmith
Codec ID : tscc
Codec ID/Info : TechSmith Screen Capture
Duration : 2mn 54s
Bit rate : 260 Kbps
Width : 1 440 pixels
Height : 900 pixels
Display aspect ratio : 1.600
Frame rate : 15.000 fps
Bits/(Pixel*Frame) : 0.013
Stream size : 5.41 MiB (44%)

Audio
ID : 1
Format : MPEG Audio
Format version : Version 1
Format profile : Layer 3
Codec ID : 55
Codec ID/Hint : MP3
Duration : 2mn 54s
Bit rate mode : Constant
Bit rate : 320 Kbps
Channel(s) : 2 channels
Sampling rate : 44.1 KHz
Stream size : 6.67 MiB (54%)
Alignment : Split accross interleaves
Interleave, duration : 998 ms (14.98 video frames)
Interleave, preload duration : 750 ms
Writing library : LAME3.97 (beta)





Поделиться:



Скачать книги и аудио книги через торрент


Вернуться к началу
 Профиль Отправить личное сообщение  
 
   Похожие торренты   Автор   Торрент   Размер 
В этой теме нет новых непрочитанных сообщений. Acronis BootCD / BootDVD 2019 v.30.03.19 (2019) PC | RePack By Elgujakviso

salma3

0 | 0

1.47 ГБ

В этой теме нет новых непрочитанных сообщений. Три в одном [S06] [Детектив, 2019] WEB-DLRip

salma3

0 | 0

1.16 ГБ

В этой теме нет новых непрочитанных сообщений. Три в одном [S05] [Детектив, 2019] WEB-DLRip

salma3

0 | 0

1.15 ГБ

В этой теме нет новых непрочитанных сообщений. Три в одном [S04] [Детектив, 2019] WEB-DLRip

salma3

0 | 0

1.14 ГБ

В этой теме нет новых непрочитанных сообщений. Я знаю твои секреты [S02] [Детектив, мелодрама, 2019] WEB-DLRip

salma3

2 | 0

2.18 ГБ

В этой теме нет новых непрочитанных сообщений. Секреты моей падчерицы / Secrets of My Stepdaughter [Триллер, 2017] WEBRip, Dvo

salma3

0 | 1

1.04 ГБ

В этой теме нет новых непрочитанных сообщений. Секреты моей падчерицы / Secrets of My Stepdaughter [Триллер, 2017] WEBRip 720p, Dvo

salma3

0 | 0

1.67 ГБ


Начать новую тему Ответить на тему  [ 1 сообщение ] 




Для Мосгорсуда, Роскомнадзора и рекламодателей:: rstracker[собака]yandex.ru
cron