Торрент файл
скачать торрент магнет ссылка Добавлен: 26 янв 2012, 19:48
Размер: 4.22 ГБ
Сидеров: 64
Личеров: 14
Автор

СообщениеДобавлено: 26 янв 2012, 19:48 

Не в сети
Супермодератор
Аватара пользователя
Дата регистрации:
11 апр 2010, 18:10
Спасибо: 6056 / 7
Сообщения: 56668
Видеопокраска автомобиля, кузовной ремонт


Перевод: Не требуется, Субтитры отсутствуют
Формат: DVD5, DVD Video, MPEG2, AC3
Страна: Россия
Жанр: Ремонт авто
Продолжительность: 02:44:10
Год выпуска: 2010

Описание: Покраска автомобиля сложный процесс, в котором требуются профессиональные навыки специалистов. Чем выше уровень подготовки профессионалов, тем лучше и качественнее будет выполнена работа.
Мы хотим предложить Вам видео программу по подготовке, покраске, полировке различных типов автомобилей.Это учебное пособие будет полезно как для начинающих автомаляров, так и для опытных специалистов.
Видео программа наглядно показывает качественный процесс подготовительно-покрасочных работ. При кузовном ремонте автомобилей должны учитываться многие факторы. Есть разница: делает специалист новую деталь, отрихтованную или, к примеру, вваренное крыло. Некоторые поврежденные детали невозможно снять и покрасить отдельно, поэтому подготовка с покраской происходит по-разному.
В наших видеоклипах мы постарались отразить многие этапы подготовительно-покрасочных работ. В частности шпатлевание и обработка поврежденных участков, нанесение грунтовки с последующим вышкуриванием, обклейка под покраску. Покажем работу с мокрыми грунтами, технику покраски пятном, растушёвку с переходами, как правильно красить лаком - экономно и без шагрени, а также подбор красок и завершающий этап - полировку деталей.


Видео: 720х576 (PAL 4:3), 25 fps, MPEG-2, ~7421 kbps avg, 0.716 bit/pixel
Аудио: 48 kHz, AC-3, 2 ch, 192.00 kbps avg

Доп. информация:
01 Вступление
02 Устранение вмятины 1
03 Устранение вмятины 2
04 Правка двери
05 Правка крыши
06 Удаление вмятин на капоте 1
07 Удаление вмятин на капоте 2
08 Удаление вмятин на капоте 3
09 Удаление вмятин на капоте 4
10 Ремонт крыла
11 Вытяжка на стенде
12 Машинка для ошкуривания
13 Подготовка к покраски двери
14 Заделка швов
15 Ремонт стойки и порога
16 Обработка новой двери
17 Подготовка к покраске
18 Снятие двухсторонней лентой резиновым кругом
19 Оклейка для покраски
20 Лаборатория подбора краски
21 Колорист
22 Материалы и инструменты
23 Мокрая салфетка
24 Подбор серой краски
25 Прибор для подбора цвета
26 Покрасочная камера
27 Регулировка пистолета
28 Клейкая лента
29 Приклеивание резины на новую дверь
30 Расворитель
31 Акрил 1
32 Акрил 2
33 Ремонт и покраска черной двери
34 Покраска бампера
35 Покраска задней двери
36 Покраска красной краской
37 Покраска крыши
38 Покраска светло серым тоном
39 Покраска Toyota Yaris 1
40 Покраска Toyota Yaris 2
41 Покраска Toyota Yaris 3
42 Покраска Toyota Yaris 4
43 Покрытие лаком двери
44 Удаление капли от лака
45 Полировка 1
46 Полировка 2
47 Полировка 3
48 Полировка фары

Общее
Формат: MPEG-PS
Общий поток: 7768 Кбит/сек

Видео
Идентификатор: 224 (0xE0)
Формат: MPEG Video
Версия формата: Version 2
Профиль формата: Main@Main
Параметр BVOP формата: Да
Параметр матрицы формата: По умолчанию
Параметры GOP формата: M=3, N=13
Вид битрейта: Переменный
Битрейт: 7421 Кбит/сек
Номинальный битрейт: 9008 Кбит/сек
Ширина: 720 пикс.
Высота: 576 пикс.
Соотношение сторон: 4:3
Частота кадров: 25,000 кадр/сек
Стандарт вещания: PAL
Цветовое пространство: YUV
Подвыборка цветности: 4:2:0
Битовая глубина: 8 бит
Тип развёртки: Прогрессивная
Метод сжатия: С потерями
Бит/(Пиксели*Кадры): 0.716
Размер потока: 174 Мбайт (95%)

Аудио
Идентификатор: 128 (0x80)
Формат: AC-3
Формат/Информация: Audio Coding 3
Расширение режима: CM (complete main)
Вид битрейта: Постоянный
Битрейт: 192 Кбит/сек
Канал(ы): 2 канала(ов)
Расположение каналов: Front: L R
Частота: 48,0 КГц
Битовая глубина: 16 бит
Метод сжатия: С потерями
Задержка видео: -656 мс.
Размер потока: 4,52 Мбайт (2%)












Поделиться:



Скачать книги и аудио книги через торрент


Вернуться к началу
 Профиль Отправить личное сообщение  
 
   Похожие торренты   Автор   Торрент   Размер 
В этой теме нет новых непрочитанных сообщений. Ну что, приехали: Ремонт / Are We Done Yet? [комедия, семейный, 2007] BDRip 720p, Mvo

salma3

12 | 10

4.37 ГБ

В этой теме нет новых непрочитанных сообщений. Квартирный вопрос [Выпуски за 2016, 01-43 выпуски] (ТВ-шоу, обучающий, ремонт, строительство, 2016) SATRip

marya111

10 | 20

29.36 ГБ

В этой теме нет новых непрочитанных сообщений. Секс на заднем сидении автомобиля (2017) CamRip

Dievas

248 | 62

98.47 МБ

В этой теме нет новых непрочитанных сообщений. Берегись автомобиля [комедия, криминал, 1966] BDRip-AVC

salma3

3 | 7

750.8 МБ

В этой теме нет новых непрочитанных сообщений. Берегись автомобиля [комедия, криминал, 1966] BDRip-AVC

salma3

17 | 9

1.46 ГБ

В этой теме нет новых непрочитанных сообщений. Берегись автомобиля [Мелодрама, комедия, криминал, 1966] BDRemux 1080p [Цветная версия]

salma3

0 | 0

13.97 ГБ

В этой теме нет новых непрочитанных сообщений. Elegant Angel - Лучшие Ангелы / All-Time Best Angels Vol.1 (2010) DVD5

salma3

7 | 4

4.36 ГБ


Начать новую тему Ответить на тему  [ 1 сообщение ] 




Для Мосгорсуда, Роскомнадзора и рекламодателей:: mosgorsud-torrent[собачка]yandex.ru
cron