Торрент файл
скачать торрент магнет ссылка Добавлен: 26 янв 2012, 19:47
Размер: 1.22 ГБ
Сидеров: 7
Личеров: 5
Автор

СообщениеДобавлено: 26 янв 2012, 19:47 

Не в сети
Супермодератор
Аватара пользователя
Дата регистрации:
11 апр 2010, 18:10
Спасибо: 6004 / 7
Сообщения: 56684
Smotra Run 2010 автопробег по России


Перевод: Не требуется, cубтитры: отсутствуют
Формат: DVDRip, MP4,H.264, AAC
Страна: Россия
Режиссер: Анатолий Зарубин
Жанр: Документальный
Продолжительность: 1:35:29
Год выпуска: 2010
В ролях: стритрейсеры, автолюбители, профессиональные гонщики, чокнутые собиратели железа и безбашенные прожигатели автомобильных покрышек
Описание: Несколько тысяч километров нелегкого пути, неделя бессонных ночей, тысяча нервных клеток, парочка дырявых покрышек, десятки скуренных кальянов, миллион улыбок, тысяча фотографий и море позитива: все это уже позади… Но впереди СВЕТЛОЕ будущее! Нам предстоит еще ни один пробег, еще тысяча встреч, еще миллион заездов – все это еще будет! А сейчас давайте окунемся в недавнее прошлое и посмотрим, как прошел автопробег…

Тула, Рязань, Шацк, Краснослободск, Саранск, Сурское, Ульяновск, Сызрань, Жигулевск, Самара, Октябрьский, Башкортостан, Миас, Челябинск, Екатеринбург, Пермь, Казань, Чебоксары, Нижний Новгород, Владимир…
Все эти города, все те люди, которые встречали московскую автоколонну, огромное вам спасибо.


Доп. информация: Скандальный фильм 2010 года

Видео: 1280x720 (16:9), 24,000 кадра/сек, AVC (х264), High@L3.1 ~1692 Кбит/сек, 0.076
Аудио: AAC, 2 канала, 44,1 КГц, 128 Кбит/сек
Общее
Полное имя: E:\Загрузки\Фильмы\smotra_run_2010_[tfile.ru].mp4
Формат: MPEG-4
Профиль формата: Base Media
Идентификатор кодека: isom
Размер файла: 1,22 Гбайт
Продолжительность: 1 ч. 35 м.
Режим общего битрейта: Переменный
Общий поток: 1825 Кбит/сек
Программа кодирования: Lavf52.40.0

Видео
Идентификатор: 1
Формат: AVC
Формат/Информация: Advanced Video Codec
Профиль формата: High@L3.1
Параметр CABAC формата: Да
Параметр ReFrames формата: 3 кадра
Идентификатор кодека: avc1
Идентификатор кодека/Информация: Advanced Video Coding
Продолжительность: 1 ч. 35 м.
Вид битрейта: Переменный
Битрейт: 1692 Кбит/сек
Номинальный битрейт: 1800 Кбит/сек
Ширина: 1280 пикселей
Высота: 720 пикселей
Соотношение сторон: 16:9
Режим частоты кадров: Переменный
Частота кадров: 24,000 кадра/сек
Частота кадров в оригинале: 25,000 кадров/сек
Минимальная частота кадров: 12,500 кадров/сек
Максимальная частота кадров: 25,000 кадров/сек
Цветовое пространство: YUV
Субдискретизация насыщенности: 4:2:0
Битовая глубина: 8 бит
Тип развёртки: Прогрессивная
Бит/(Пиксели*Кадры): 0.076
Размер потока: 1,13 Гбайт (93%)
Библиотека кодирования: x264 core 79
Настройки программы: cabac=1 / ref=3 / deblock=1:0:0 / analyse=0x3:0x113 / me=hex / subme=7 / psy=1 / psy_rd=1.0:0.0 / mixed_ref=1 / me_range=16 / chroma_me=1 / trellis=1 / 8x8dct=1 / cqm=0 / deadzone=21,11 / chroma_qp_offset=-2 / threads=24 / nr=0 / decimate=1 / mbaff=0 / constrained_intra=0 / bframes=3 / b_pyramid=0 / b_adapt=1 / b_bias=0 / direct=1 / wpredb=32 / wpredp=2 / keyint=250 / keyint_min=25 / scenecut=40 / rc_lookahead=40 / rc=abr / mbtree=1 / bitrate=1800 / ratetol=2.2 / qcomp=0.60 / qpmin=10 / qpmax=51 / qpstep=4 / ip_ratio=1.41 / aq=1:1.00
Язык: English

Аудио
Идентификатор: 2
Формат: AAC
Формат/Информация: Advanced Audio Codec
Профиль формата: LC
Идентификатор кодека: 40
Продолжительность: 1 ч. 35 м.
Вид битрейта: Переменный
Битрейт: 128 Кбит/сек
Каналы: 2 канала
Расположение каналов: Front: L R
Частота: 44,1 КГц
Метод сжатия: С потерями
Размер потока: 87,4 Мбайт (7%)
Язык: English











Поделиться:



Вернуться к началу
 Профиль Отправить личное сообщение  
 
   Похожие торренты   Автор   Торрент   Размер 
В этой теме нет новых непрочитанных сообщений. Крылья России. Ту-160. «Белый лебедь» стратегического назначения (Алексей Терёшкин) [2013, документальный, авиация, DVDRip]

salma3

2 | 1

575.51 МБ

В этой теме нет новых непрочитанных сообщений. Крылья России. Фронтовой бомбардировщик Су-24. «Умная сила» (Андрей Кулясов) [2013, документальный, авиация, DVDRip]

salma3

2 | 1

579.83 МБ

В этой теме нет новых непрочитанных сообщений. Черный ворон (Анатолий Алай) [2017, документальный, DVB]

salma3

0 | 0

703.31 МБ

В этой теме нет новых непрочитанных сообщений. Анатолий Кучерена - Время спрута (Анатолий Кучерена) [Детектив, 2015] MP3

Dracon

109 | 5

254.25 МБ

В этой теме нет новых непрочитанных сообщений. Военная контрразведка. Наша Победа. Операция Развод / - (Владимир Цуканов) [2010, документальный, DVDRip-AVC]

salma3

0 | 1

548.37 МБ

В этой теме нет новых непрочитанных сообщений. Морская сила России (1-6 серии из 6) (Людмила Назарук, Борис Мамлин) [2006 - 2009, документальный, флот, история, война, SATRip]

salma3

13 | 3

3.16 ГБ

В этой теме нет новых непрочитанных сообщений. Служу России (Эфир от 04.02.2018) (ТК Звезда) [2018, документальный, SATRip]

salma3

0 | 0

343.79 МБ


Начать новую тему Ответить на тему  [ 1 сообщение ] 




Для Мосгорсуда, Роскомнадзора и рекламодателей:: mosgorsud-torrent[собачка]yandex.ru
cron