Торрент файл
скачать торрент магнет ссылка Добавлен: 27 июн 2017, 12:12
Размер: 1.46 ГБ
Сидеров: 147
Личеров: 21
Статус: (salma3)
Автор

СообщениеДобавлено: 27 июн 2017, 12:12 

Не в сети
Супермодератор
Аватара пользователя
Дата регистрации:
15 фев 2012, 16:44
Возраст: 29
Спасибо: 7320 / 2147
Сообщения: 73192
Год выхода: 1994
Жанр: Драма, эротика
Режиссер: Тинто Брасс

В ролях: Катарина Василисса, Франческо Казале, Кристина Гаравалья, Рафаэлла Оффидани, Антонио Салинес, Элеонора Де Грасси, Габри Креа, Мартина Брошар, Франко Бранчароли, Эрика Савастани, Паоло Мурано, Тед Русофф, Мария Ла Роза, Лулу, Маттео

О фильме:
Это фильм о том, что дарит нам высшее наслаждение и боль. Он может помочь понять, как уменьшить боль, а не понравится он разве что ханже и живому мертвецу. Стремясь избавиться от страданий из-за разрыва с любимой женой. Эдуардо твердит стихи Бодлера: «Будь проклят тот кретин, кто впервые смешал воедино любовь и честь». Он уверен: то, что общество выводит за рамки дозволенного, является важнейшей частью человеческой жизни.



Страна: Италия
Продолжительность: 01:43:05
Перевод: Профессиональный (двухголосый закадровый)

Файл
Кодек: XviD
Качество: BDRip
Видео: 720x400 (1.80:1), 23.976 fps, XviD build 73 ~1633 kbps avg, 0.24 bit/pixel
Аудио 1: 48 kHz, AC3 Dolby Digital, 3/2 (L,C,R,l,r) + LFE ch, ~384 kbps Rus

General
Complete name : C:UsersUserDesktopL'uomo.che.guarda.1994.BDRip.DVO_by_LBS.avi
Format : AVI
Format/Info : Audio Video Interleave
File size : 1.46 GiB
Duration : 1h 43mn
Overall bit rate : 2 026 Kbps
Director : Last Boy Scout
Writing application : VirtualDubMod 1.5.10.3 | www.virtualdub-fr.org || (build 2550/release)
Copyright : rutracker.org 07.05.2016
Comment : BDRip DVO
Video
ID : 0
Format : MPEG-4 Visual
Format profile : Advanced Simple@L5
Format settings, BVOP : 1
Format settings, QPel : No
Format settings, GMC : No warppoints
Format settings, Matrix : Custom
Codec ID : XVID
Codec ID/Hint : XviD
Duration : 1h 43mn
Bit rate : 1 633 Kbps
Width : 720 pixels
Height : 400 pixels
Display aspect ratio : 16:9
Frame rate : 23.976 fps
Color space : YUV
Chroma subsampling : 4:2:0
Bit depth : 8 bits
Scan type : Progressive
Compression mode : Lossy
Bits/(Pixel*Frame) : 0.236
Stream size : 1.18 GiB (81%)
Writing library : XviD 73
Audio
ID : 1
Format : AC-3
Format/Info : Audio Coding 3
Mode extension : CM (complete main)
Format settings, Endianness : Big
Codec ID : 2000
Duration : 1h 43mn
Bit rate mode : Constant
Bit rate : 384 Kbps
Channel(s) : 6 channels
Channel positions : Front: L C R, Side: L R, LFE
Sampling rate : 48.0 KHz
Bit depth : 16 bits
Compression mode : Lossy
Stream size : 283 MiB (19%)
Alignment : Split accross interleaves
Interleave, duration : 42 ms (1.00 video frame)
Interleave, preload duration : 500 ms


_________________
Проголосуй за трекер Открытый торрент трекер - RUS-MEDIA.ORG

Проголосуй Открытый торрент трекер - RUS-MEDIA.ORG


Вернуться к началу
 Профиль Отправить личное сообщение  
 
   Похожие торренты   Автор   Торрент   Размер 
В этой теме нет новых непрочитанных сообщений. Смерть скачет на коне / Da uomo a uomo [вестерн, 1967] BDRip, Dvo

salma3

74 | 14

1.45 ГБ

В этой теме нет новых непрочитанных сообщений. Смерть скачет на коне / Death Rides a Horse / Da uomo a uomo [Вестерн, 1967] BDRip 720p, Mvo

salma3

0 | 0

4.97 ГБ

В этой теме нет новых непрочитанных сообщений. Смерть скачет на коне / Death Rides a Horse / Da uomo a uomo [Вестерн, 1967] BDRip 720p, Mvo

salma3

0 | 0

4.97 ГБ

В этой теме нет новых непрочитанных сообщений. Подглядывающий на пляже / Voyeur beach [Эротика, Триллер, 2002] DVDRip, Mvo

salma3

23 | 1

1.37 ГБ

В этой теме нет новых непрочитанных сообщений. Подглядывающий / Giochi particolari [Драма, 1970] SATRip, Dvo

salma3

0 | 0

1.84 ГБ

В этой теме нет новых непрочитанных сообщений. Сексуальные воительницы / Sexy Warriors (Дин МакКендрик) [2014, США, эротика, комедия, SATRip 720p] VO / Фильмы HD/BD (Эротика) ; Сериалы HD/BD (Эротика)

salma3

24 | 9

2.31 ГБ

В этой теме нет новых непрочитанных сообщений. Creepers Peepers / Подглядывающий (2016) WEB-DL

amadei

22 | 10

1.73 ГБ


Начать новую тему Ответить на тему  [ 1 сообщение ] 




Для Мосгорсуда, Роскомнадзора и рекламодателей:: mosgorsud-torrent[собачка]yandex.ru
cron