Торрент файл
скачать торрент магнет ссылка Добавлен: 07 янв 2012, 20:41
Размер: 3.91 ГБ
Сидеров: 33
Личеров: 7
Автор

СообщениеДобавлено: 07 янв 2012, 20:41 

Не в сети
Аватара пользователя
Дата регистрации:
19 окт 2011, 11:19
Возраст: 25
Спасибо: 533 / 1
Сообщения: 8830
Un tal Gavito / Уроки танго Карлоса Гавито

Перевод: Отсутствует, cубтитры: есть
Формат: DVDRip, AVI, Другой MPEG4, AAC
Страна: Argentina
Режиссер: Gavito
Жанр: Tango classes
Продолжительность: 1:05+0:48+1:04
Год выпуска: 2005
В ролях: Carlos Gavito
Описание: Гавито сказал как-то: "Танго - это объятие, паузы и чувство".
3 диска с уроками одного из величайших танцоров аргентинского Танго - для тех, кто понимает, почему он был прав. Таких мастеров сейчас, увы, уже нет. Но, слава Богу - остались его видео-уроки.

Язык: Испанский (hardcoded англ. субтитры)

Видео: 704x480, MPEG-4, 29.024 fps, 2 994 Kbps, 0.288 bit/pixel
Аудио: AAC, 48.0 KHz, 2 channels, 160 kbps











Информация mediainfo

General
Complete name: UnTalGavito1.avi
Format: MPEG-4
Format profile: Base Media / Version 2
Codec ID: mp42
File size: 1.37 GiB
Duration: 1h 5mn
Overall bit rate: 2 994 Kbps
Encoded date: UTC 2009-12-04 10:58:39
Tagged date: UTC 2009-12-05 08:12:07
Writing application: HandBrake 0.9.4 2009112300

Video
ID: 1
Format: AVC
Format/Info: Advanced Video Codec
Format profile: High@L3.0
Format settings, CABAC: Yes
Format settings, ReFrames: 3 frames
Codec ID: avc1
Codec ID/Info: Advanced Video Coding
Duration: 1h 5mn
Bit rate mode: Variable
Bit rate: 2 829 Kbps
Width: 704 pixels
Height: 480 pixels
Display aspect ratio: 4:3
Frame rate mode: Variable
Frame rate: 29.024 fps
Minimum frame rate: 17.123 fps
Maximum frame rate: 47.594 fps
Original frame rate: 29.023 fps
Resolution: 24 bits
Colorimetry: 4:2:0
Scan type: Progressive
Bits/(Pixel*Frame): 0.288
Stream size: 1.29 GiB (94%)
Writing library: x264 core 79
Encoding settings: cabac=1 / ref=3 / deblock=1:0:0 / analyse=0x3:0x133 / me=hex / subme=7 / psy=1 / psy_rd=1,0:0,0 / mixed_ref=1 / me_range=16 / chroma_me=1 / trellis=1 / 8x8dct=1 / cqm=0 / deadzone=21,11 / chroma_qp_offset=-2 / threads=1 / nr=0 / decimate=1 / mbaff=0 / constrained_intra=0 / bframes=3 / b_pyramid=0 / b_adapt=2 / b_bias=0 / direct=1 / wpredb=1 / wpredp=2 / keyint=300 / keyint_min=30 / scenecut=40 / rc_lookahead=50 / rc=2pass / mbtree=1 / bitrate=2829 / ratetol=1,0 / qcomp=0,60 / qpmin=10 / qpmax=51 / qpstep=4 / cplxblur=20,0 / qblur=0,5 / ip_ratio=1,40 / aq=1:1,00
Encoded date: UTC 2009-12-04 10:58:39
Tagged date: UTC 2009-12-05 08:12:07
Color primaries: BT.601-6 525, BT.1358 525, BT.1700 NTSC, SMPTE 170M
Transfer characteristics: BT.709-5, BT.1361
Matrix coefficients: BT.601-6 525, BT.1358 525, BT.1700 NTSC, SMPTE 170M

Audio
ID: 2
Format: AAC
Format/Info: Advanced Audio Codec
Format version: Version 4
Format profile: LC
Format settings, SBR: No
Codec ID: 40
Duration: 1h 5mn
Bit rate mode: Variable
Bit rate: 160 Kbps
Maximum bit rate: 206 Kbps
Channel(s): 2 channels
Channel positions: L R
Sampling rate: 48.0 KHz
Resolution: 16 bits
Stream size: 74.9 MiB (5%)
Encoded date: UTC 2009-12-04 10:58:39
Tagged date: UTC 2009-12-05 08:12:07

Text
ID: 3
Format: Apple text
Codec ID: text
Duration: 1h 5mn
Bit rate mode: Constant
Bit rate: 1 bps
Stream size: 624 Bytes (0%)
Encoded date: UTC 2009-12-04 10:58:39
Tagged date: UTC 2009-12-05 08:12:07

General
Complete name: UnTalGavito2.avi
Format: MPEG-4
Format profile: Base Media / Version 2
Codec ID: mp42
File size: 1.17 GiB
Duration: 48mn 43s
Overall bit rate: 3 446 Kbps
Encoded date: UTC 2009-12-05 23:21:50
Tagged date: UTC 2009-12-06 17:41:15
Writing application: HandBrake 0.9.4 2009112300

Video
ID: 1
Format: AVC
Format/Info: Advanced Video Codec
Format profile: High@L3.0
Format settings, CABAC: Yes
Format settings, ReFrames: 3 frames
Codec ID: avc1
Codec ID/Info: Advanced Video Coding
Duration: 48mn 42s
Bit rate mode: Variable
Bit rate: 3 282 Kbps
Width: 704 pixels
Height: 480 pixels
Display aspect ratio: 4:3
Frame rate mode: Variable
Frame rate: 29.386 fps
Minimum frame rate: 17.114 fps
Maximum frame rate: 29.970 fps
Resolution: 24 bits
Colorimetry: 4:2:0
Scan type: Progressive
Bits/(Pixel*Frame): 0.331
Stream size: 1.12 GiB (95%)
Writing library: x264 core 79
Encoding settings: cabac=1 / ref=3 / deblock=1:0:0 / analyse=0x3:0x133 / me=umh / subme=7 / psy=1 / psy_rd=1,0:0,0 / mixed_ref=1 / me_range=16 / chroma_me=1 / trellis=1 / 8x8dct=1 / cqm=0 / deadzone=21,11 / chroma_qp_offset=-2 / threads=1 / nr=0 / decimate=1 / mbaff=0 / constrained_intra=0 / bframes=3 / b_pyramid=0 / b_adapt=2 / b_bias=0 / direct=1 / wpredb=1 / wpredp=2 / keyint=300 / keyint_min=30 / scenecut=40 / rc_lookahead=50 / rc=2pass / mbtree=1 / bitrate=3282 / ratetol=1,0 / qcomp=0,60 / qpmin=10 / qpmax=51 / qpstep=4 / cplxblur=20,0 / qblur=0,5 / ip_ratio=1,40 / aq=1:1,00
Encoded date: UTC 2009-12-05 23:21:50
Tagged date: UTC 2009-12-06 17:41:15
Color primaries: BT.601-6 525, BT.1358 525, BT.1700 NTSC, SMPTE 170M
Transfer characteristics: BT.709-5, BT.1361
Matrix coefficients: BT.601-6 525, BT.1358 525, BT.1700 NTSC, SMPTE 170M

Audio
ID: 2
Format: AAC
Format/Info: Advanced Audio Codec
Format version: Version 4
Format profile: LC
Format settings, SBR: No
Codec ID: 40
Duration: 48mn 43s
Bit rate mode: Variable
Bit rate: 160 Kbps
Maximum bit rate: 206 Kbps
Channel(s): 2 channels
Channel positions: L R
Sampling rate: 48.0 KHz
Resolution: 16 bits
Stream size: 55.7 MiB (5%)
Encoded date: UTC 2009-12-05 23:21:50
Tagged date: UTC 2009-12-06 17:41:15

Text
ID: 3
Format: Apple text
Codec ID: text
Duration: 48mn 42s
Bit rate mode: Constant
Bit rate: 2 bps
Stream size: 624 Bytes (0%)
Encoded date: UTC 2009-12-05 23:21:50
Tagged date: UTC 2009-12-06 17:41:15

General
Complete name: UnTalGavito3.avi
Format: MPEG-4
Format profile: Base Media / Version 2
Codec ID: mp42
File size: 1.37 GiB
Duration: 1h 4mn
Overall bit rate: 3 055 Kbps
Encoded date: UTC 2009-12-07 17:31:34
Tagged date: UTC 2009-12-08 15:08:06
Writing application: HandBrake 0.9.4 2009112300

Video
ID: 1
Format: AVC
Format/Info: Advanced Video Codec
Format profile: High@L3.0
Format settings, CABAC: Yes
Format settings, ReFrames: 3 frames
Codec ID: avc1
Codec ID/Info: Advanced Video Coding
Duration: 1h 4mn
Bit rate mode: Variable
Bit rate: 2 890 Kbps
Width: 704 pixels
Height: 480 pixels
Display aspect ratio: 4:3
Frame rate mode: Variable
Frame rate: 28.596 fps
Minimum frame rate: 14.993 fps
Maximum frame rate: 29.970 fps
Resolution: 24 bits
Colorimetry: 4:2:0
Scan type: Progressive
Bits/(Pixel*Frame): 0.299
Stream size: 1.29 GiB (95%)
Writing library: x264 core 79
Encoding settings: cabac=1 / ref=3 / deblock=1:2:2 / analyse=0x3:0x133 / me=umh / subme=7 / psy=1 / psy_rd=1,0:0,0 / mixed_ref=1 / me_range=16 / chroma_me=1 / trellis=1 / 8x8dct=1 / cqm=0 / deadzone=21,11 / chroma_qp_offset=-2 / threads=1 / nr=0 / decimate=1 / mbaff=0 / constrained_intra=0 / bframes=3 / b_pyramid=0 / b_adapt=2 / b_bias=0 / direct=1 / wpredb=1 / wpredp=2 / keyint=300 / keyint_min=30 / scenecut=40 / rc_lookahead=50 / rc=2pass / mbtree=1 / bitrate=2890 / ratetol=1,0 / qcomp=0,60 / qpmin=10 / qpmax=51 / qpstep=4 / cplxblur=20,0 / qblur=0,5 / ip_ratio=1,40 / aq=1:1,00
Encoded date: UTC 2009-12-07 17:31:34
Tagged date: UTC 2009-12-08 15:08:06
Color primaries: BT.601-6 525, BT.1358 525, BT.1700 NTSC, SMPTE 170M
Transfer characteristics: BT.709-5, BT.1361
Matrix coefficients: BT.601-6 525, BT.1358 525, BT.1700 NTSC, SMPTE 170M

Audio
ID: 2
Format: AAC
Format/Info: Advanced Audio Codec
Format version: Version 4
Format profile: LC
Format settings, SBR: No
Codec ID: 40
Duration: 1h 4mn
Bit rate mode: Variable
Bit rate: 160 Kbps
Maximum bit rate: 205 Kbps
Channel(s): 2 channels
Channel positions: L R
Sampling rate: 48.0 KHz
Resolution: 16 bits
Stream size: 73.4 MiB (5%)
Encoded date: UTC 2009-12-07 17:31:34
Tagged date: UTC 2009-12-08 15:08:06

Text
ID: 3
Format: Apple text
Codec ID: text
Duration: 1h 4mn
Bit rate mode: Constant
Bit rate: 1 bps
Stream size: 528 Bytes (0%)
Encoded date: UTC 2009-12-07 17:31:34
Tagged date: UTC 2009-12-08 15:08:06


Поделиться:




реклама партнёра


Вернуться к началу
 Профиль Отправить личное сообщение  
 
   Похожие торренты   Автор   Торрент   Размер 
В этой теме нет новых непрочитанных сообщений. Michelle Wild - Страстное танго в Париже / Private Black Label 21: Lust Tango In Paris (2001) DVDRip

salma3

12 | 3

282.31 МБ

В этой теме нет новых непрочитанных сообщений. Танго втроем / Three to Tango [мелодрама, комедия, 1999] WEB-DLRip, Dub

salma3

37 | 7

1.45 ГБ

В этой теме нет новых непрочитанных сообщений. Танго и Кэш / Tango & Cash [боевик, триллер, комедия, 1989] BDRip, Dub [Мост Видео]

salma3

127 | 13

1.46 ГБ

В этой теме нет новых непрочитанных сообщений. Виски. Танго. Фокстрот / Репортерша / Whiskey Tango Foxtrot [комедия, военный, 2016] BDRip, Dub [Лицензия]

salma3

505 | 26

1.46 ГБ

В этой теме нет новых непрочитанных сообщений. Уроки вождения / Driving Lessons [драма, комедия, 2006] DVDRip, Mvo

salma3

7 | 2

1.46 ГБ

В этой теме нет новых непрочитанных сообщений. Уроки соблазнения / 50 Ways to Leave Your Lover [мелодрама, комедия, 2004] DVDRip, Mvo

salma3

261 | 56

1.31 ГБ

В этой теме нет новых непрочитанных сообщений. Репортерша / Whiskey Tango Foxtrot [Драма, комедия, военный, биография, 2016] Blu-Ray, Dub [Лицензия]

salma3

9 | 7

42.14 ГБ


Начать новую тему Ответить на тему  [ 1 сообщение ] 




Для Мосгорсуда, Роскомнадзора и рекламодателей:: mosgorsud-torrent[собачка]yandex.ru