COVID-19 - Последняя информация о коронавирусе на сайте Минздрава




Торрент файл
скачать торрент магнет ссылка Добавлен: 07 янв 2012, 20:37
Размер: 2.29 ГБ
Сидеров: 10
Личеров: 7
Автор

СообщениеДобавлено: 07 янв 2012, 20:37 

Не в сети
Аватара пользователя
Дата регистрации:
19 окт 2011, 11:19
Возраст: 28
Спасибо: 637 / 1
Сообщения: 8830
Лилия Гиматдинова: Постановка классического танца. (Межансе)


Перевод: Не требуется, cубтитры: отсутствуют
Формат: DVD5, DVD Video, MPEG2, MP2
Страна: Россия
Тематика: Обучающее видео, танцы
Продолжительность: 00:45:20
Год выпуска: 2010
В ролях: Лилия Гиматдинова

Описание: Что обозначает термин `межансе`? МЕЖАНСЕ - это инструментальная классическая постановка, которая является «визитной карточкой» танцовщицы и включает в себя разные ритмы из фольклорных стилей.
На этом видеоуроке Вы познакомитесь с постановкой, которая представляет собой определенный микс таких стилей как `Russian belly dance` и `Cairo style`.
Кроме самой постановки урок наполнен разбором интересных приемов, «фишек», сложных элементов от Лилии Гиматдиновой.
Хорошее качество съемки и подачи материала! Мастер-класс состоит из шести частей, каждая из которых разбирается под музыку и без музыки .
Мастер класс предназначен для среднего и сложного уровня.


Видео: 720x576 (PAL 4:3),25,000 fps, MPEG 2, ~6988kbps avg, 0.674bit/pixel
Аудио: 48.0 kHz, MPEG Layer 2 , 2 ch, 224 Kbps avg


Общее
Полное имя: E:\Lilija Gimatdinova - Межансе\VIDEO_TS\VTS_01_1.VOB
Формат: MPEG-PS
Размер файла: 1024 Мбайт
Продолжительность: 19 м.
Общий поток: 7358 Кбит/сек

Видео
Идентификатор: 224 (0xE0)
Формат: MPEG Video
Версия формата: Version 2
Профиль формата: Main@Main
Параметр BVOP формата: Да
Параметр матрицы формата: По умолчанию
Параметры GOP формата: M=3, N=12
Продолжительность: 19 м.
Вид битрейта: Переменный
Битрейт: 6988 Кбит/сек
Номинальный битрейт: 8500 Кбит/сек
Ширина: 720 пикс.
Высота: 576 пикс.
Соотношение сторон: 4:3
Частота кадров: 25,000 кадр/сек
Стандарт вещания: PAL
Цветовое пространство: YUV
Подвыборка цветности: 4:2:0
Битовая глубина: 8 бит
Тип развёртки: Чересстрочная
Порядок развёртки: Верхнее поле первое
Метод сжатия: С потерями
Бит/(Пиксели*Кадры): 0.674
Размер потока: 972 Мбайт (95%)

Аудио
Идентификатор: 192 (0xC0)
Формат: MPEG Audio
Версия формата: Version 1
Профиль формата: Layer 2
Продолжительность: 19 м.
Вид битрейта: Постоянный
Битрейт: 224 Кбит/сек
Канал(ы): 2 канала(ов)
Частота: 48,0 КГц
Метод сжатия: С потерями
Размер потока: 31,2 Мбайт (3%)

Меню



Поделиться:



Скачать книги и аудио книги через торрент


Вернуться к началу
 Профиль Отправить личное сообщение  
 
   Похожие торренты   Автор   Торрент   Размер 
В этой теме нет новых непрочитанных сообщений. Грязные танцы / Dirty Dancing [драма, мелодрама, музыка, 1987] BDRip 1080p, Mvo [Remastered]

zorgi

0 | 0

8.43 ГБ

В этой теме нет новых непрочитанных сообщений. Фигурное катание. 2019 ISU Grand Prix Final of Figure Skating. Танцы. Произвольная программа [07.12] (2019) HDTV 1080i

salma3

0 | 0

2.86 ГБ

В этой теме нет новых непрочитанных сообщений. Домашнее горячее видео (2019) CamRip

Dievas

322 | 72

270.78 МБ

В этой теме нет новых непрочитанных сообщений. Видео с потерянного телефона (2018) CamRip

Dievas

461 | 59

144.54 МБ

В этой теме нет новых непрочитанных сообщений. Видео с мачехой 2 / Stepmom Videos 2 (2015) DVDRip

zorgi

136 | 34

2.05 ГБ

В этой теме нет новых непрочитанных сообщений. Секс, ложь и видео / Sex, Lies, and Videotape [Драма, 1989] BDRip 1080p, Mvo

salma3

0 | 3

9.4 ГБ

В этой теме нет новых непрочитанных сообщений. К бою готовы / Ready to Rumble [Комедия, спорт, 2000] WEBRip, Dub [Мост-Видео]

salma3

0 | 0

1.45 ГБ


Начать новую тему Ответить на тему  [ 1 сообщение ] 




Для Мосгорсуда, Роскомнадзора и рекламодателей:: rstracker[собака]yandex.ru
cron