Торрент файл
скачать торрент магнет ссылка Добавлен: 07 янв 2012, 20:37
Размер: 2.29 ГБ
Сидеров: 10
Личеров: 6
Автор

СообщениеДобавлено: 07 янв 2012, 20:37 

Не в сети
Аватара пользователя
Дата регистрации:
19 окт 2011, 11:19
Возраст: 25
Спасибо: 532 / 1
Сообщения: 8830
Лилия Гиматдинова: Постановка классического танца. (Межансе)


Перевод: Не требуется, cубтитры: отсутствуют
Формат: DVD5, DVD Video, MPEG2, MP2
Страна: Россия
Тематика: Обучающее видео, танцы
Продолжительность: 00:45:20
Год выпуска: 2010
В ролях: Лилия Гиматдинова

Описание: Что обозначает термин `межансе`? МЕЖАНСЕ - это инструментальная классическая постановка, которая является «визитной карточкой» танцовщицы и включает в себя разные ритмы из фольклорных стилей.
На этом видеоуроке Вы познакомитесь с постановкой, которая представляет собой определенный микс таких стилей как `Russian belly dance` и `Cairo style`.
Кроме самой постановки урок наполнен разбором интересных приемов, «фишек», сложных элементов от Лилии Гиматдиновой.
Хорошее качество съемки и подачи материала! Мастер-класс состоит из шести частей, каждая из которых разбирается под музыку и без музыки .
Мастер класс предназначен для среднего и сложного уровня.


Видео: 720x576 (PAL 4:3),25,000 fps, MPEG 2, ~6988kbps avg, 0.674bit/pixel
Аудио: 48.0 kHz, MPEG Layer 2 , 2 ch, 224 Kbps avg


Общее
Полное имя: E:\Lilija Gimatdinova - Межансе\VIDEO_TS\VTS_01_1.VOB
Формат: MPEG-PS
Размер файла: 1024 Мбайт
Продолжительность: 19 м.
Общий поток: 7358 Кбит/сек

Видео
Идентификатор: 224 (0xE0)
Формат: MPEG Video
Версия формата: Version 2
Профиль формата: Main@Main
Параметр BVOP формата: Да
Параметр матрицы формата: По умолчанию
Параметры GOP формата: M=3, N=12
Продолжительность: 19 м.
Вид битрейта: Переменный
Битрейт: 6988 Кбит/сек
Номинальный битрейт: 8500 Кбит/сек
Ширина: 720 пикс.
Высота: 576 пикс.
Соотношение сторон: 4:3
Частота кадров: 25,000 кадр/сек
Стандарт вещания: PAL
Цветовое пространство: YUV
Подвыборка цветности: 4:2:0
Битовая глубина: 8 бит
Тип развёртки: Чересстрочная
Порядок развёртки: Верхнее поле первое
Метод сжатия: С потерями
Бит/(Пиксели*Кадры): 0.674
Размер потока: 972 Мбайт (95%)

Аудио
Идентификатор: 192 (0xC0)
Формат: MPEG Audio
Версия формата: Version 1
Профиль формата: Layer 2
Продолжительность: 19 м.
Вид битрейта: Постоянный
Битрейт: 224 Кбит/сек
Канал(ы): 2 канала(ов)
Частота: 48,0 КГц
Метод сжатия: С потерями
Размер потока: 31,2 Мбайт (3%)

Меню



Поделиться:




реклама партнёра


Вернуться к началу
 Профиль Отправить личное сообщение  
 
   Похожие торренты   Автор   Торрент   Размер 
В этой теме нет новых непрочитанных сообщений. Как запомнить всю колоду из 52 карт (Станислав Матвеев) [2015, Обучающее видео, SATRip]

st.matvv

70 | 12

1.4 ГБ

В этой теме нет новых непрочитанных сообщений. Специалист. Знакомство с Windows 10 и Windows Server (М. Соколов) [2014, Обучающее видео, PCRec]

Nickolas3435

266 | 15

1.68 ГБ

В этой теме нет новых непрочитанных сообщений. Хатха Йога. Освоение прогибов и Йоганидрасаны. Последовательность среднего уровня [2015, обучающее видео, йога, DVDRip]

a.lihanov

24 | 1

1.33 ГБ

В этой теме нет новых непрочитанных сообщений. Год после Игр (Россия) [Спорт, музыкально-театрализованная постановка, 07.02.2015] HDTVRip

Dracon

3 | 4

928.59 МБ

В этой теме нет новых непрочитанных сообщений. Космонавт. Профессия без пафоса (Лилия Самойлова) [2011, документальный, познавательный, космонавтика, SATRip]

salma3

1 | 1

320.75 МБ

В этой теме нет новых непрочитанных сообщений. Дочери танца / Corki dancingu (Агнешка Смочиньска / Agnieszka Smoczynska) [2015г., Польша, мюзикл, фантастика, драма, комедия, HDRip-AVC] AVO

Alfredovich

108 | 16

1.35 ГБ

В этой теме нет новых непрочитанных сообщений. Free Studio 6.5.3.713 [2015, Видео, аудио конвертер; запись, копирование дисков; редактор видео, аудио файлов]

salma3

38 | 2

61.91 МБ


Начать новую тему Ответить на тему  [ 1 сообщение ] 




Для Мосгорсуда, Роскомнадзора и рекламодателей:: mosgorsud-torrent[собачка]yandex.ru