COVID-19 - Последняя информация о коронавирусе на сайте Минздрава




Торрент файл
скачать торрент магнет ссылка Добавлен: 07 янв 2012, 20:59
Размер: 2.37 ГБ
Сидеров: 33
Личеров: 12
Автор

СообщениеДобавлено: 07 янв 2012, 20:59 

Не в сети
Аватара пользователя
Дата регистрации:
19 окт 2011, 11:19
Возраст: 28
Спасибо: 637 / 1
Сообщения: 8830
Сноуборд. От азов до фрирайда / Learn to Board. Watch. Learn. Ride


Перевод: Профессиональный (одноголосый), cубтитры: отсутствуют
Формат: DVD5, DVD Video, MPEG2, AC3
Жанр: видеоурок

Продолжительность: 00:40:00

Год выпуска: 1999
Участники: Уоррен Миллер

Описание: Лучший обучающий фильм по сноубордингу от знаменитого мастера сноубордического кино Уоррена Миллера.Великолепные уроки для новичков и прорайдеров, для обучающихся и сомневающихся, для всех, кто любит хорошее катание и отличное кино. Вы получите ответ на все свои вопросы: с чего начать, какую доску выбрать, как одеваться, где и как кататься. Вы научитесь стоять, скользить, поворачивать и тормозить на доске, изучите: прыжки и фигуры. Вам помогут избежать ошибок новичков и покажут тренировочные сессии профессионалов.

Видео: 720х576 25, 000fps, MPEG Video (PAL 4:3),7143kbps,0.689bit/pixel
Аудио#1:Русский: 48.0 kHz, AC3, (Front: L R) , 2 ch ~ 192 Kbps avg[Профессиональный (одноголосый)]
Аудио#2:Английский: 48.0 kHz, AC3, (Front: L R) , 2 ch ~ 192 Kbps avg[Оригинал]

Доп. информация: Лучший обучающий фильм по сноубордингу от знаменитого мастера сноубордического кино Уоррена Миллера.


Общее
Полное имя: E:\Snowboard\VIDEO_TS\VTS_03_1.VOB
Формат: MPEG-PS
Размер файла: 1024 Мбайт
Продолжительность: 18 м.
Общий поток: 7680 Кбит/сек
Библиотека кодирования: (c) 1997-2003 Womble Multimedia, Inc. / MPEG-VCR V3.14 (08/2003) / Oct 28 2003

Видео
Идентификатор: 224 (0xE0)
Формат: MPEG Video
Версия формата: Version 2
Профиль формата: Main@Main
Параметр BVOP формата: Да
Параметр матрицы формата: По умолчанию
Продолжительность: 18 м.
Вид битрейта: Переменный
Битрейт: 7143 Кбит/сек
Номинальный битрейт: 9000 Кбит/сек
Ширина: 720 пикс.
Высота: 576 пикс.
Соотношение сторон: 4:3
Частота кадров: 25,000 кадр/сек
Стандарт вещания: PAL
Цветовое пространство: YUV
Подвыборка цветности: 4:2:0
Битовая глубина: 8 бит
Тип развёртки: Чересстрочная
Порядок развёртки: Верхнее поле первое
Метод сжатия: С потерями
Бит/(Пиксели*Кадры): 0.689
Размер потока: 952 Мбайт (93%)
Библиотека кодирования: (c) 1997-2003 Womble Multimedia, Inc. / MPEG-VCR V3.14 (08/2003) / Oct 28 2003

Аудио #1
Идентификатор: 128 (0x80)
Формат: AC-3
Формат/Информация: Audio Coding 3
Расширение режима: CM (complete main)
Продолжительность: 18 м.
Вид битрейта: Постоянный
Битрейт: 192 Кбит/сек
Канал(ы): 2 канала(ов)
Расположение каналов: Front: L R
Частота: 48,0 КГц
Битовая глубина: 16 бит
Метод сжатия: С потерями
Задержка видео: -80 мс.
Размер потока: 25,6 Мбайт (2%)

Аудио #2
Идентификатор: 129 (0x81)
Формат: AC-3
Формат/Информация: Audio Coding 3
Расширение режима: CM (complete main)
Продолжительность: 18 м.
Вид битрейта: Постоянный
Битрейт: 192 Кбит/сек
Канал(ы): 2 канала(ов)
Расположение каналов: Front: L R
Частота: 48,0 КГц
Битовая глубина: 16 бит
Метод сжатия: С потерями
Задержка видео: -80 мс.
Размер потока: 25,6 Мбайт (2%)

Меню








[/spoiler]
Поделиться:



Скачать книги и аудио книги через торрент


Вернуться к началу
 Профиль Отправить личное сообщение  
 
   Похожие торренты   Автор   Торрент   Размер 
В этой теме нет новых непрочитанных сообщений. Marcelin Abadir - Жесткий анал во время кулинарного урока / Anal Hard fuck learn to cook (2019) CAMRip

zorgi

21 | 1

947.03 МБ

В этой теме нет новых непрочитанных сообщений. Marcelin Abadir - Жесткий анал во время кулинарного урока / Anal Hard fuck learn to cook (2019) CAMRip 720p

zorgi

83 | 13

674.95 МБ

В этой теме нет новых непрочитанных сообщений. [LittleAsians.com] Elle Voneva, Vina Sky - Tiny Asian Teens Learn To Share Foreigner Dick (2019-01-15) [2019 г., Asian, Teen, Petite, Natural Tits, Small Tits, Threesome, BGG, Blowjob, All sex, 1080p]

salma3

0 | 0

3.34 ГБ

В этой теме нет новых непрочитанных сообщений. [AlettaOceanLive.com] Aletta Ocean - Champagne On Board [17.08.2018 г., Big tits, solo, masturbation, toys, 2160p]

salma3

0 | 0

1.15 ГБ

В этой теме нет новых непрочитанных сообщений. [VivThomas.com] Karol Lilien & Lexi Dona / Dripping Wet Episode 2 - Babes On Board (19.10.2018) [bikini blonde boat brunette cunnilingus erect nipples fingering girl-girl jean shorts, 360p]

salma3

0 | 0

306.7 МБ

В этой теме нет новых непрочитанных сообщений. Экстро 3: Проклятие небес / Xtro 3: Watch the Skies [ужасы, фантастика, 1995] HDRip, Avo

salma3

0 | 0

1.46 ГБ

В этой теме нет новых непрочитанных сообщений. [ShareMyBF.com / Mofos.com] Athena Rayne, Mandy Muse - Now Watch Me Squirt (18.09.2018) [All sex, 3some]

salma3

0 | 0

274.94 МБ


Начать новую тему Ответить на тему  [ 1 сообщение ] 




Для Мосгорсуда, Роскомнадзора и рекламодателей:: rstracker[собака]yandex.ru
cron