COVID-19 - Последняя информация о коронавирусе на сайте Минздрава




Торрент файл
скачать торрент магнет ссылка Добавлен: 07 янв 2012, 21:17
Размер: 3.91 ГБ
Сидеров: 44
Личеров: 12
Автор

СообщениеДобавлено: 07 янв 2012, 21:17 

Не в сети
Аватара пользователя
Дата регистрации:
19 окт 2011, 11:19
Возраст: 28
Спасибо: 637 / 1
Сообщения: 8830
Пятнадцать мужских стрижек


Перевод: Не требуется, cубтитры: отсутствуют
Формат: DVD5, DVD Video, MPEG2, MPEG Audio
Страна: Россия
Жанр: Обучающее видео, Салон красоты
Продолжительность: 01:13:07
Год выпуска: 2009
Описание: Мастера парикмахерского искусства по праву пользуются всеобщим уважением за великолепные творческие находки и оригинальные решения. На данном диске представлены 15 мужских стрижек, выполненных при помощи ножниц, машинки и бритвы, а также демонстрируются техники окрашивания и различные варианты укладок.
Вы увидите много нового и интересного, что поможет Вам в повседневном труде и творчестве.


Видео: 720x576 (PAL 4:3), 25 fps, MPEG-2, ~6975 kbps avg, 0.673 bit/pixel
Аудио: 48 kHz, MPEG Audio, 2 ch, 224.00 kbps avg

Общее
Формат: MPEG-PS
Общий поток: 7345 Кбит/сек

Видео
Идентификатор: 224 (0xE0)
Формат: MPEG Video
Версия формата: Version 2
Профиль формата: Main@Main
Параметр BVOP формата: Да
Параметр матрицы формата: По умолчанию
Параметры GOP формата: M=3, N=15
Вид битрейта: Переменный
Битрейт: 6975 Кбит/сек
Номинальный битрейт: 8000 Кбит/сек
Ширина: 720 пикс.
Высота: 576 пикс.
Соотношение сторон: 4:3
Частота кадров: 25,000 кадр/сек
Стандарт вещания: PAL
Цветовое пространство: YUV
Подвыборка цветности: 4:2:0
Битовая глубина: 8 бит
Тип развёртки: Чересстрочная
Порядок развёртки: Верхнее поле первое
Метод сжатия: С потерями
Бит/(Пиксели*Кадры): 0.673
Размер потока: 855 Мбайт (95%)

Аудио
Идентификатор: 192 (0xC0)
Формат: MPEG Audio
Версия формата: Version 1
Профиль формата: Layer 2
Вид битрейта: Постоянный
Битрейт: 224 Кбит/сек
Канал(ы): 2 канала(ов)
Частота: 48,0 КГц
Метод сжатия: С потерями
Размер потока: 27,5 Мбайт (3%)









Поделиться:



Скачать книги и аудио книги через торрент


Вернуться к началу
 Профиль Отправить личное сообщение  
 
   Похожие торренты   Автор   Торрент   Размер 
В этой теме нет новых непрочитанных сообщений. Салон красоты / Beauty Shop [комедия, 2005] HDRip, Dvo [НТВ+]

salma3

0 | 0

1.46 ГБ

В этой теме нет новых непрочитанных сообщений. Пятнадцать минут войны / 15 Minutes of War / L'Intervention [Боевик, драма, военный, 2019] WEBRip, Dvo [LakeFilms]

salma3

516 | 60

1.17 ГБ

В этой теме нет новых непрочитанных сообщений. Пятнадцать минут войны / 15 Minutes of War / L'Intervention [Боевик, драма, военный, 2019] WEBRip, Dvo [LakeFilms]

salma3

В этой теме нет новых непрочитанных сообщений. Пятнадцать минут войны / 15 Minutes of War / L'Intervention [Боевик, драма, военны, 2019] BDRip, Dvo [LakeFilms]

salma3

0 | 0

1.46 ГБ

В этой теме нет новых непрочитанных сообщений. Пятнадцать минут войны / 15 Minutes of War / L'Intervention [Боевик, драма, военный, 2019] BDRip, Mvo [iTunes]

salma3

0 | 0

1.42 ГБ

В этой теме нет новых непрочитанных сообщений. Пятнадцать минут войны / 15 Minutes of War / L'Intervention [Боевик, драма, военный, 2019] WEBRip 720p, Dvo [LakeFilms]

salma3

0 | 0

2.03 ГБ

В этой теме нет новых непрочитанных сообщений. Пятнадцать минут войны / 15 Minutes of War / L'Intervention [Боевик, драма, военный, 2019] WEBRip 1080p, Dvo [LakeFilms]

salma3

0 | 0

3.59 ГБ


Начать новую тему Ответить на тему  [ 1 сообщение ] 




Для Мосгорсуда, Роскомнадзора и рекламодателей:: rstracker[собака]yandex.ru
cron