COVID-19 - Последняя информация о коронавирусе на сайте Минздрава




Торрент файл
скачать торрент магнет ссылка Добавлен: 07 янв 2012, 21:17
Размер: 1.69 ГБ
Сидеров: 23
Личеров: 8
Автор

СообщениеДобавлено: 07 янв 2012, 21:17 

Не в сети
Аватара пользователя
Дата регистрации:
19 окт 2011, 11:19
Возраст: 28
Спасибо: 637 / 1
Сообщения: 8830
Креативные стрижки для детей: мальчикам и девочкам


Перевод: Не требуется, cубтитры: отсутствуют
Формат: DVD5, DVD Video, MPEG2, MP2
Страна: Россия
Жанр: Парикмахерское искусство, обучающее видео
Продолжительность: 00:50:00
Год выпуска: 2008

Описание: 13 Детских креативных стрижек и одна с узором на голове паутинка. Показаны 7 стрижек для мальчиков и 6 для девочек. Каждая стрижка вместе с укладкой.

Видео: 720x576 (PAL 4:3),25,000 fps,MPEG 2, ~6167kbps avg,0.595bit/pixel
Аудио: 48.0 kHz, MPEG Layer 2 , 2 ch ~ 224 Kbps avg


Общее
Полное имя: E:\видео детские стрижки\VTS_01_1.VOB
Формат: MPEG-PS
Размер файла: 1024 Мбайт
Продолжительность: 21 м.
Общий поток: 6521 Кбит/сек

Видео
Идентификатор: 224 (0xE0)
Формат: MPEG Video
Версия формата: Version 2
Профиль формата: Main@Main
Параметр BVOP формата: Да
Параметр матрицы формата: По умолчанию
Продолжительность: 21 м.
Вид битрейта: Переменный
Битрейт: 6167 Кбит/сек
Номинальный битрейт: 8500 Кбит/сек
Ширина: 720 пикс.
Высота: 576 пикс.
Соотношение сторон: 4:3
Частота кадров: 25,000 кадр/сек
Стандарт вещания: PAL
Цветовое пространство: YUV
Подвыборка цветности: 4:2:0
Битовая глубина: 8 бит
Тип развёртки: Чересстрочная
Порядок развёртки: Верхнее поле первое
Метод сжатия: С потерями
Бит/(Пиксели*Кадры): 0.595
Размер потока: 968 Мбайт (95%)

Аудио
Идентификатор: 192 (0xC0)
Формат: MPEG Audio
Версия формата: Version 1
Профиль формата: Layer 2
Режим: Joint stereo
Расширение режима: Intensity Stereo + MS Stereo
Продолжительность: 21 м.
Вид битрейта: Постоянный
Битрейт: 224 Кбит/сек
Канал(ы): 2 канала(ов)
Частота: 48,0 КГц
Метод сжатия: С потерями
Размер потока: 35,2 Мбайт (3%)

Меню







Поделиться:



Скачать книги и аудио книги через торрент


Вернуться к началу
 Профиль Отправить личное сообщение  
 
   Похожие торренты   Автор   Торрент   Размер 
В этой теме нет новых непрочитанных сообщений. Похититель детей / Le voleur d'enfants [драма, 1991] DVDRip, Avo

salma3

0 | 0

1.46 ГБ

В этой теме нет новых непрочитанных сообщений. Грязная работа / Dirty Job: Complotto Carnale / Reglements De Comptes (2008) DVD5

zorgi

37 | 38

3.88 ГБ

В этой теме нет новых непрочитанных сообщений. Дорогая, я уменьшил детей / Honey, I Shrunk the Kids [Комедия, приключения, семейный, 1989] Remux 1080p, Mvo

salma3

0 | 0

20.71 ГБ

В этой теме нет новых непрочитанных сообщений. Благослови зверей и детей / Bless the Beasts & Children [Драма, комедия, 1971] WEB-DL 1080p, Mvo

salma3

0 | 0

9.98 ГБ

В этой теме нет новых непрочитанных сообщений. Не смотри вниз / No mires para abajo [Мелодрама, драма, артхауc, эротика, 2008] DVD5, Avo

K15

2 | 0

3.9 ГБ

В этой теме нет новых непрочитанных сообщений. Искусство анального секса 3 / The Art of Anal Sex 3 (2016) WEB-DL

salma3

237 | 54

2.46 ГБ

В этой теме нет новых непрочитанных сообщений. Silvia Saint - Искусство соблазнения 22 / Pick-up lines 22 (1998) WEBRip

zorgi

82 | 12

348.68 МБ


Начать новую тему Ответить на тему  [ 1 сообщение ] 




Для Мосгорсуда, Роскомнадзора и рекламодателей:: rstracker[собака]yandex.ru
cron