Торрент файл
скачать торрент магнет ссылка Добавлен: 07 янв 2012, 21:43
Размер: 24.63 МБ
Сидеров: 37
Личеров: 9
Автор

СообщениеДобавлено: 07 янв 2012, 21:43 

Не в сети
Аватара пользователя
Дата регистрации:
19 окт 2011, 11:19
Возраст: 26
Спасибо: 548 / 1
Сообщения: 8830
Как сделать Portable программу с помощью WinRar

Перевод: Отсутствует, cубтитры: отсутствуют
Формат: WMV, WMV3, WMA
Жанр: Видеоурок
Качество: PCRec
Продолжительность: 00:01:51
Год выпуска: 2011
Разработчик: Captain Evidence
Описание: В этом видеоуроке вы узнаете как сделать Portable версию программы с помощью известного архиватора WinRar на примере SLOW-PC Fighter

General
Complete name : Как сделать Portable с помощью WinRar by Captain Evidence.wmv
Format : Windows Media
File size : 24.6 MiB
Duration : 1mn 51s
Overall bit rate mode : Variable
Overall bit rate : 1 855 Kbps
Maximum Overall bit rate : 2 843 Kbps
Genre : Видеоурок
Recorded date : 2011
Encoded date : UTC 2011-01-15 17:53:33.559
MediaFoundationVersion : 2.112
Video #2
ID : 2
Format : VC-1
Format profile : MP@HL
Codec ID : WMV3
Codec ID/Info : Windows Media Video 9
Codec ID/Hint : WMV3
Description of the codec : Windows Media Video 9
Duration : 1mn 51s
Bit rate mode : Variable
Bit rate : 2 360 Kbps
Width : 1 440 pixels
Height : 900 pixels
Display aspect ratio : 1.600
Frame rate : 20.000 fps
Bit depth : 8 bits
Scan type : Progressive
Bits/(Pixel*Frame) : 0.091
Stream size : 31.3 MiB
Language : English (US)
Audio #1
ID : 1
Format : WMA
Format version : Version 2
Codec ID : 161
Codec ID/Info : Windows Media Audio
Description of the codec : Windows Media Audio 9.2 -48 kbps, 44 kHz, mono 1-pass CBR
Duration : 1mn 51s
Bit rate mode : Constant
Bit rate : 48.0 Kbps
Channel(s) : 1 channel
Sampling rate : 44.1 KHz
Bit depth : 16 bits
Stream size : 653 KiB (3%)
Language : English (US)







Поделиться:



Вернуться к началу
 Профиль Отправить личное сообщение  
 
   Похожие торренты   Автор   Торрент   Размер 
В этой теме нет новых непрочитанных сообщений. WinRAR 5.50 Final (2017) РС | + RePack & Portable by KpoJIuK

salma3

0 | 0

6.44 МБ

В этой теме нет новых непрочитанных сообщений. WinRAR 5.60 Beta 4 [Ru]

salma3

0 | 0

6.45 МБ

В этой теме нет новых непрочитанных сообщений. WinRAR 5.60 Beta 5 (2018) РС

salma3

0 | 0

6.44 МБ

В этой теме нет новых непрочитанных сообщений. WinRAR 5.60 Beta 1 (2018) РС

salma3

0 | 0

6.44 МБ

В этой теме нет новых непрочитанных сообщений. Первый мститель / Captain America: The First Avenger [фантастика, боевик, приключения, 2011] WEB-DLRip, Dub [Open Matte]

salma3

20 | 3

1.46 ГБ

В этой теме нет новых непрочитанных сообщений. Улики / Evidence [Триллер, ужасы, 2013] HDRip-AVC, Dub

salma3

74 | 14

745.93 МБ

В этой теме нет новых непрочитанных сообщений. Загнанный в угол / Compelling Evidence [Триллер, 1995] DVDRip, Avo

salma3

11 | 3

1.49 ГБ


Начать новую тему Ответить на тему  [ 1 сообщение ] 




Для Мосгорсуда, Роскомнадзора и рекламодателей:: mosgorsud-torrent[собачка]yandex.ru
cron