COVID-19 - Последняя информация о коронавирусе на сайте Минздрава




Торрент файл
скачать торрент магнет ссылка Добавлен: 07 янв 2012, 22:09
Размер: 2.47 ГБ
Сидеров: 50
Личеров: 11
Автор

СообщениеДобавлено: 07 янв 2012, 22:09 

Не в сети
Аватара пользователя
Дата регистрации:
19 окт 2011, 11:19
Возраст: 28
Спасибо: 637 / 1
Сообщения: 8830
Видеоурок по фокусам для детей


Перевод: Не требуется (только музыка), cубтитры: отсутствуют
Формат: DVD5, DVD Video, MPEG2, MPEG-AUDIO
Страна: Китай
Разработчик: Eddy International LTD
Жанр: Видеоуроки для детей
Продолжительность: 00:53:47
Год выпуска: 2008
Описание: Видеоколлекция фокусов - 55, с разгадками и обучением. Очень увлекательно... будет чем порадовать детей и их родителей... особенно произвести правильное первое впечатление.
Не требует особых затрат на реквизит.


Видео: 720х480 (NTSC 4:3), 29,970 fps, MPEG-2, 6000 kbps avg, 0.579 bit/pixel
Аудио: 48 kHz, MPEG Layer 2, 2 ch, 256.00 kbps avg

Доп. информация:
Общее
Формат: MPEG-PS
Общий поток: 6378 Кбит/сек

Видео
Идентификатор: 224 (0xE0)
Формат: MPEG Video
Версия формата: Version 2
Профиль формата: Main@Main
Параметр BVOP формата: Да
Параметр матрицы формата: По умолчанию
Вид битрейта: Постоянный
Битрейт: 6000 Кбит/сек
Ширина: 720 пикс.
Высота: 480 пикс.
Соотношение сторон: 4:3
Частота кадров: 29,970 кадр/сек
Стандарт вещания: NTSC
Цветовое пространство: YUV
Подвыборка цветности: 4:2:0
Битовая глубина: 8 бит
Тип развёртки: Чересстрочная
Порядок развёртки: Верхнее поле первое
Метод сжатия: С потерями
Бит/(Пиксели*Кадры): 0.579
Размер потока: 963 Мбайт (94%)

Аудио
Идентификатор: 192 (0xC0)
Формат: MPEG Audio
Версия формата: Version 1
Профиль формата: Layer 2
Вид битрейта: Постоянный
Битрейт: 256 Кбит/сек
Канал(ы): 2 канала(ов)
Частота: 48,0 КГц
Метод сжатия: С потерями
Размер потока: 41,1 Мбайт (4%)












Поделиться:



Скачать книги и аудио книги через торрент


Вернуться к началу
 Профиль Отправить личное сообщение  
 
   Похожие торренты   Автор   Торрент   Размер 
В этой теме нет новых непрочитанных сообщений. Похититель детей / Le voleur d'enfants [драма, 1991] DVDRip, Avo

salma3

0 | 0

1.46 ГБ

В этой теме нет новых непрочитанных сообщений. Благослови зверей и детей / Bless the Beasts & Children [Драма, комедия, 1971] WEB-DL 1080p, Mvo

salma3

0 | 0

9.98 ГБ

В этой теме нет новых непрочитанных сообщений. Дорогая, я уменьшил детей / Honey, I Shrunk the Kids [Комедия, приключения, семейный, 1989] Remux 1080p, Mvo

salma3

0 | 0

20.71 ГБ

В этой теме нет новых непрочитанных сообщений. Грязная работа / Dirty Job: Complotto Carnale / Reglements De Comptes (2008) DVD5

zorgi

37 | 38

3.88 ГБ

В этой теме нет новых непрочитанных сообщений. Не смотри вниз / No mires para abajo [Мелодрама, драма, артхауc, эротика, 2008] DVD5, Avo

K15

2 | 0

3.9 ГБ

В этой теме нет новых непрочитанных сообщений. Майя / Maya [ужасы, 1989] DVD5, Avo

salma3

0 | 0

3.99 ГБ

В этой теме нет новых непрочитанных сообщений. Запретный плод / Le Fruit Defendu (1985) DVD5

zorgi

2 | 0

2.9 ГБ


Начать новую тему Ответить на тему  [ 1 сообщение ] 




Для Мосгорсуда, Роскомнадзора и рекламодателей:: rstracker[собака]yandex.ru
cron