COVID-19 - Последняя информация о коронавирусе на сайте Минздрава




Торрент файл
скачать торрент магнет ссылка Добавлен: 07 янв 2012, 22:08
Размер: 4.36 ГБ
Сидеров: 219
Личеров: 19
Автор

СообщениеДобавлено: 07 янв 2012, 22:08 

Не в сети
Аватара пользователя
Дата регистрации:
19 окт 2011, 11:19
Возраст: 28
Спасибо: 637 / 1
Сообщения: 8830
Английский язык для детей


Перевод: Не требуется, cубтитры: отсутствуют
Формат: DVD5, DVD Video, MPEG2, AC3
Страна: Россия
Автор: Елена Меркулова
Жанр: Обучающее видео
Продолжительность: 05:02:28
Год выпуска: 2005
В ролях: Елена Меркулова
Описание: Перед Вами видеокурс в четырех частях "English for children", который основывается на методике, максимально приближенной к современной школьной программе,по которой учатся дети. Видеокурс предназначен для учащихся младших школьных классов, но будет интересен и для дошкольников. Вместе с симпатичными мультипликационными героями Ваш ребенок ознакомиться с английскими звуками и буквами,узнает что такое транскрипция,освоит большой набор слов и научиться строить правильные предложения.Особое внимание уделяется произношению, а пройденный материал закрепляется в веселых картинках.

Видео: 720х576 (PAL 4:3), 25 fps, MPEG-2, ~1835 kbps avg, 0.177 bit/pixel
Аудио: 48 kHz, AC-3, 2 ch, 192.00 kbps avg

Доп. информация: Автор и ведущая - Елена Меркулова - доцент, заведующая кафедрой фонетики английского языка Российского Государственного Педагогического Университета им. А.И.Герцена, Санкт-Петербург. Имеет многолетний опыт преподавания в школе с углубленным изучением английского языка.

Общее
Формат: MPEG-PS
Общий поток: 2068 Кбит/сек

Видео
Идентификатор: 224 (0xE0)
Формат: MPEG Video
Версия формата: Version 2
Профиль формата: Main@Main
Параметр BVOP формата: Да
Параметр матрицы формата: По умолчанию
Вид битрейта: Переменный
Битрейт: 1835 Кбит/сек
Номинальный битрейт: 2800 Кбит/сек
Ширина: 720 пикс.
Высота: 576 пикс.
Соотношение сторон: 4:3
Частота кадров: 25,000 кадр/сек
Стандарт вещания: PAL
Цветовое пространство: YUV
Подвыборка цветности: 4:2:0
Битовая глубина: 8 бит
Тип развёртки: Чересстрочная
Порядок развёртки: Верхнее поле первое
Метод сжатия: С потерями
Бит/(Пиксели*Кадры): 0.177
Размер потока: 909 Мбайт (89%)

Аудио
Идентификатор: 128 (0x80)
Формат: AC-3
Формат/Информация: Audio Coding 3
Расширение режима: CM (complete main)
Вид битрейта: Постоянный
Битрейт: 192 Кбит/сек
Канал(ы): 2 канала(ов)
Расположение каналов: Front: L R
Частота: 48,0 КГц
Битовая глубина: 16 бит
Метод сжатия: С потерями
Размер потока: 95,1 Мбайт (9%)











Поделиться:



Скачать книги и аудио книги через торрент


Вернуться к началу
 Профиль Отправить личное сообщение  
 
   Похожие торренты   Автор   Торрент   Размер 
В этой теме нет новых непрочитанных сообщений. Язык разбитого сердца / Language of a Broken Heart [мелодрама, комедия, 2011] SATRip, Mvo

salma3

0 | 0

1.46 ГБ

В этой теме нет новых непрочитанных сообщений. Rita Faltoyano - Праздник Клаудии / Язык моей мачехи / Claudia's Holiday (2007) HDRip

zorgi

18 | 7

252.28 МБ

В этой теме нет новых непрочитанных сообщений. Rita Faltoyano - Праздник Клаудии / Язык моей мачехи / Claudia's Holiday (2007) HDRip 720p

zorgi

2 | 0

509.38 МБ

В этой теме нет новых непрочитанных сообщений. Tarra White & Gilda Roberts - Праздник Клаудии / Язык моей мачехи / Claudia's Holiday (2007) HDRip

zorgi

32 | 31

292.94 МБ

В этой теме нет новых непрочитанных сообщений. Tarra White & Gilda Roberts - Праздник Клаудии / Язык моей мачехи / Claudia's Holiday (2007) HDRip 720p

zorgi

81 | 7

582.83 МБ

В этой теме нет новых непрочитанных сообщений. Футбол. Чемпионат Англии 2017-18. Английский акцент. 27-й тур [13.02] (2018) HDTVRip

salma3

0 | 0

890.83 МБ

В этой теме нет новых непрочитанных сообщений. Футбол. Чемпионат Англии 2017-18. Английский акцент. 26-й тур [06.02] (2018) HDTVRip

salma3

0 | 0

884.25 МБ


Начать новую тему Ответить на тему  [ 1 сообщение ] 




Для Мосгорсуда, Роскомнадзора и рекламодателей:: rstracker[собака]yandex.ru
cron