COVID-19 - Последняя информация о коронавирусе на сайте Минздрава




Торрент файл
скачать торрент магнет ссылка Добавлен: 07 янв 2012, 22:08
Размер: 2.86 ГБ
Сидеров: 29
Личеров: 10
Автор

СообщениеДобавлено: 07 янв 2012, 22:08 

Не в сети
Аватара пользователя
Дата регистрации:
19 окт 2011, 11:19
Возраст: 28
Спасибо: 637 / 1
Сообщения: 8830
Учимcя читать и пиcать

Перевод: Не требуется, cубтитры: отсутствуют
Формат: DVD5, DVD Video, MPEG2, AC3
Страна: Россия
Режиссер: Игорь Пелинский
Жанр: Обучающее видео, для детей и родителей
Продолжительность: 00:55:21
Год выпуска: 2009
В ролях: Логопед и преподаватель - Наталья Пятибратова и её воспитанницы

Описание: Вот и подрос ваш малыш, и пришла пора задумываться всерьез о его обучении. Специалисты считают, что возраст с 3 до 6 лет – самый эффективный для начала занятий по чтению и письму. Любой мамочке под силу организовать такие занятия с малышом дома, не отдавая в детское учреждение. И вот тут перед нами встает главный вопрос – а как научить читать и писать малыша, какой метод обучения выбрать?
Сегодня на книжных полках вы найдете множество различных букварей, а в Интернете – любопытные необычные пособия, по которым можно начать занятия. Многие мамы в растерянности: каждый автор считает свою методику уникальной и самой лучшей. Но несмотря на изобилие таких товаров, у каждого из них есть свои плюсы и минусы.
Давайте попробуем разобраться в методиках обучения чтению и письму и сделать занятия с малышом увлекательными и полезными. Пусть ваши занятия с малышом будут наполнены радостью, смехом и удивительными открытиями.


Видео: 720x576 (PAL 16:9), 25 fps, MPEG-2, ~6860 kbps avg, 0.662 bit/pixel
Аудио: 48 kHz, AC-3, 2 ch, 192.00 kbps avg

Общее
Формат: MPEG-PS
Общий поток: 7195 Кбит/сек

Видео
Идентификатор: 224 (0xE0)
Формат: MPEG Video
Версия формата: Version 2
Профиль формата: Main@Main
Параметр BVOP формата: Да
Параметр матрицы формата: По умолчанию
Параметры GOP формата: M=3, N=12
Вид битрейта: Переменный
Битрейт: 6860 Кбит/сек
Номинальный битрейт: 8000 Кбит/сек
Ширина: 720 пикс.
Высота: 576 пикс.
Соотношение сторон: 16:9
Частота кадров: 25,000 кадр/сек
Стандарт вещания: PAL
Цветовое пространство: YUV
Подвыборка цветности: 4:2:0
Битовая глубина: 8 бит
Тип развёртки: Чересстрочная
Порядок развёртки: Нижнее поле первое
Метод сжатия: С потерями
Бит/(Пиксели*Кадры): 0.662
Размер потока: 976 Мбайт (95%)

Аудио
Идентификатор: 128 (0x80)
Формат: AC-3
Формат/Информация: Audio Coding 3
Расширение режима: CM (complete main)
Вид битрейта: Постоянный
Битрейт: 192 Кбит/сек
Канал(ы): 2 канала(ов)
Расположение каналов: Front: L R
Частота: 48,0 КГц
Битовая глубина: 16 бит
Метод сжатия: С потерями
Задержка видео: -80 мс.
Размер потока: 27,3 Мбайт (3%)










Поделиться:



Скачать книги и аудио книги через торрент


Вернуться к началу
 Профиль Отправить личное сообщение  
 
   Похожие торренты   Автор   Торрент   Размер 
В этой теме нет новых непрочитанных сообщений. Ловушка для родителей / The Parent Trap [мелодрама, комедия, семейный, 1961] BDRip, Mvo

salma3

0 | 0

2.18 ГБ

В этой теме нет новых непрочитанных сообщений. Ловушка для родителей / The Parent Trap [драма, мелодрама, комедия, 1998] WEB-DL 1080p, Mvo

salma3

0 | 0

12.9 ГБ

В этой теме нет новых непрочитанных сообщений. Ловушка для родителей / The Parent Trap [драма, мелодрама, комедия, 1998] BDRip 720p, Mvo

salma3

0 | 0

6.52 ГБ

В этой теме нет новых непрочитанных сообщений. Ловушка для родителей / The Parent Trap [мелодрама, комедия, семейный, 1961] BDRemux 1080p, Mvo

salma3

0 | 0

29.89 ГБ

В этой теме нет новых непрочитанных сообщений. Ловушка для родителей / The Parent Trap [комедия, приключения, семейный, 1998] HDRip-AVC, Mvo

salma3

1 | 1

744.57 МБ

В этой теме нет новых непрочитанных сообщений. Ловушка для родителей / The Parent Trap [мелодрама, комедия, семейный, 1961] WEB-DL 1080p, Mvo

salma3

0 | 0

13.85 ГБ

В этой теме нет новых непрочитанных сообщений. Коко Шанель и Игорь Стравинский / Chanel Coco & Igor Stravinsky [Мелодрама, экранизация, 2009] НDRip, Mvo [Первый канал]

salma3

0 | 0

1.45 ГБ


Начать новую тему Ответить на тему  [ 1 сообщение ] 




Для Мосгорсуда, Роскомнадзора и рекламодателей:: rstracker[собака]yandex.ru
cron