COVID-19 - Последняя информация о коронавирусе на сайте Минздрава




Торрент файл
скачать торрент магнет ссылка Добавлен: 07 янв 2012, 22:08
Размер: 2.22 ГБ
Сидеров: 25
Личеров: 8
Автор

СообщениеДобавлено: 07 янв 2012, 22:08 

Не в сети
Аватара пользователя
Дата регистрации:
19 окт 2011, 11:19
Возраст: 28
Спасибо: 637 / 1
Сообщения: 8830
Аэробика для детей. Сказочная аэробика

Перевод: Не требуется, cубтитры: отсутствуют
Формат: DVD5, DVD Video, MPEG2, AC3
Страна: Россия
Жанр: Обучающее видео для детей
Продолжительность: 00:36:25
Год выпуска: 2005
Описание: Аэробика для детей. Сказочная аэробика — видеопрограмма выполнена в виде сказок. Занимаясь по ней, дети улучшат осанку и научатся танцевать.

Видео: 720х576 (PAL 4:3), 25 fps, MPEG-2, ~8298 kbps avg, 0,800 bit/pixel
Аудио: 48 kHz, AC-3 , 5 ch (Front: L C R, Side: C, LFE), 448.00 kbps avg

Доп. информация: Разминка:
1. Сказка про Винни-Пуха.
Вы сможете выучить танцевальные движения и сыграть сказку. Занимаясь Вы развиваете координацию движений, тренируете дыхательную и сердечно-сосудистую системы.
2. Веселый танец
Упражнения с фитболом (Сказка «Теремок») Занимаясь на фитболе, Вы — уменьшаете нагрузки на позвоночник, это очень ценно при слабых мышцах спины и нарушениях осанки. Комплекс упражнений с фитболом повышает выносливость, уровень проявления мышечной силы ловкости и быстроты.
«Дюймовочка» — это упражнения на полу, развивающие гибкость и силу.
«Котауси и Мауси» — это стречинг. Стречинг помогает увеличить эластичность мышц, связок, сухожилий. Повышает сократительную мышечную способность; После интенсивной работы ускоряет восстановительные процессы в мышцах; Обогощает мышцы кислородом и улучшает в них обменные процессы.
Общее
Формат: MPEG-PS
Общий поток: 8882 Кбит/сек

Видео
Идентификатор: 224 (0xE0)
Формат: MPEG Video
Версия формата: Version 2
Профиль формата: Main@Main
Параметр BVOP формата: Да
Параметр матрицы формата: По умолчанию
Параметры GOP формата: M=3, N=15
Вид битрейта: Переменный
Битрейт: 8298 Кбит/сек
Ширина: 720 пикс.
Высота: 576 пикс.
Соотношение сторон: 4:3
Частота кадров: 25,000 кадр/сек
Стандарт вещания: PAL
Цветовое пространство: YUV
Подвыборка цветности: 4:2:0
Битовая глубина: 8 бит
Тип развёртки: Чересстрочная
Порядок развёртки: Верхнее поле первое
Метод сжатия: С потерями
Бит/(Пиксели*Кадры): 0.800
Размер потока: 952 Мбайт (93%)

Аудио
Идентификатор: 128 (0x80)
Формат: AC-3
Формат/Информация: Audio Coding 3
Расширение режима: CM (complete main)
Вид битрейта: Постоянный
Битрейт: 448 Кбит/сек
Канал(ы): 5 канала(ов)
Расположение каналов: Front: L C R, Side: C, LFE
Частота: 48,0 КГц
Битовая глубина: 16 бит
Метод сжатия: С потерями
Размер потока: 51,6 Мбайт (5%)










Поделиться:



Скачать книги и аудио книги через торрент


Вернуться к началу
 Профиль Отправить личное сообщение  
 
   Похожие торренты   Автор   Торрент   Размер 
В этой теме нет новых непрочитанных сообщений. Похититель детей / Le voleur d'enfants [драма, 1991] DVDRip, Avo

salma3

0 | 0

1.46 ГБ

В этой теме нет новых непрочитанных сообщений. Дорогая, я уменьшил детей / Honey, I Shrunk the Kids [Комедия, приключения, семейный, 1989] Remux 1080p, Mvo

salma3

0 | 0

20.71 ГБ

В этой теме нет новых непрочитанных сообщений. Благослови зверей и детей / Bless the Beasts & Children [Драма, комедия, 1971] WEB-DL 1080p, Mvo

salma3

0 | 0

9.98 ГБ

В этой теме нет новых непрочитанных сообщений. Сказочная жена (2018) CamRip

Dievas

624 | 26

179.99 МБ

В этой теме нет новых непрочитанных сообщений. Rita Black (12 роликов) (aka Rita, Tunde Shift, Roxanne, Roxane) MiniPack / Rita Black [2000-2005, Straight, Anal, DP, DVDRip, DVD5]

salma3

8 | 3

7.39 ГБ

В этой теме нет новых непрочитанных сообщений. Домашнее горячее видео (2019) CamRip

Dievas

322 | 72

270.78 МБ

В этой теме нет новых непрочитанных сообщений. Видео с потерянного телефона (2018) CamRip

Dievas

461 | 59

144.54 МБ


Начать новую тему Ответить на тему  [ 1 сообщение ] 




Для Мосгорсуда, Роскомнадзора и рекламодателей:: rstracker[собака]yandex.ru
cron