Торрент файл
скачать торрент магнет ссылка Добавлен: 07 янв 2012, 22:29
Размер: 1.57 ГБ
Сидеров: 36
Личеров: 9
Автор

СообщениеДобавлено: 07 янв 2012, 22:29 

Не в сети
Аватара пользователя
Дата регистрации:
19 окт 2011, 11:19
Возраст: 27
Спасибо: 635 / 1
Сообщения: 8830
Bacardi - школа барменов

Перевод: Не требуется, cубтитры: отсутствуют
Формат: DVD5, DVD Video, MPEG2, AC3
Страна: Россия
Жанр: Видеоуроки
Продолжительность: 00:39:22
Год выпуска: 2005
В ролях: Александр Родоман
Описание: Обучающий и развлекательный диск для барменов: уроки мастерства от Чемпиона мира по флейрингу Александра Родомана. Флейринг представляем собою часть работы бармена в стиле фристайл или диско, а именно жонглирование, балансировки и прочие трюки, выполняющиеся с бутылками, шейкерами, бокалами и другим барным оборудованием.

Видео: 720х576 (PAL 4:3), 25 fps, MPEG-2, ~6245 kbps avg, 0.602 bit/pixel
Аудио: 48 kHz, AC-3, 2 ch, 192.00 kbps avg

Доп. информация:
1. Flaring
2. Рабочий флейринг часть 1
3. Рабочий флейринг часть 2
4. Наливы
5. Коктейли
6. Барные фокусы
7. Вечеринки Bacardi
Общее
Формат: MPEG-PS
Общий поток: 6568 Кбит/сек

Видео
Идентификатор: 224 (0xE0)
Формат: MPEG Video
Версия формата: Version 2
Профиль формата: Main@Main
Параметр BVOP формата: Да
Параметр матрицы формата: По умолчанию
Параметры GOP формата: M=3, N=12
Вид битрейта: Переменный
Битрейт: 6245 Кбит/сек
Номинальный битрейт: 9000 Кбит/сек
Ширина: 720 пикс.
Высота: 576 пикс.
Соотношение сторон: 4:3
Частота кадров: 25,000 кадр/сек
Стандарт вещания: PAL
Цветовое пространство: YUV
Подвыборка цветности: 4:2:0
Битовая глубина: 8 бит
Тип развёртки: Прогрессивная
Метод сжатия: С потерями
Бит/(Пиксели*Кадры): 0.602
Размер потока: 554 Мбайт (95%)

Аудио
Идентификатор: 128 (0x80)
Формат: AC-3
Формат/Информация: Audio Coding 3
Расширение режима: CM (complete main)
Вид битрейта: Постоянный
Битрейт: 192 Кбит/сек
Канал(ы): 2 канала(ов)
Расположение каналов: Front: L R
Частота: 48,0 КГц
Битовая глубина: 16 бит
Метод сжатия: С потерями
Задержка видео: -272 мс.
Размер потока: 17,0 Мбайт (3%)









Поделиться:



Скачать книги и аудио книги через торрент


Вернуться к началу
 Профиль Отправить личное сообщение  
 
   Похожие торренты   Автор   Торрент   Размер 
В этой теме нет новых непрочитанных сообщений. Rita Black (12 роликов) (aka Rita, Tunde Shift, Roxanne, Roxane) MiniPack / Rita Black [2000-2005, Straight, Anal, DP, DVDRip, DVD5]

salma3

8 | 3

7.39 ГБ

В этой теме нет новых непрочитанных сообщений. Школа / The School [Ужасы, триллер, 2018] WEBRip, Dvo

salma3

26 | 2

838.69 МБ

В этой теме нет новых непрочитанных сообщений. Школа мужества [драма, приключения, военный, 1954] DVDRip-AVC

salma3

15 | 7

1.09 ГБ

В этой теме нет новых непрочитанных сообщений. Nat Geo Wild: Медвежья школа / Bearhood (2014) HDTVRip | P1

salma3

0 | 0

630.2 МБ

В этой теме нет новых непрочитанных сообщений. Школа / The School [Ужасы, триллер, 2018] BDRip, Dub [iTunes]

salma3

0 | 0

1.41 ГБ

В этой теме нет новых непрочитанных сообщений. Nat Geo Wild: Медвежья школа / Bearhood (2014) HDTVRip-AVC | P1

salma3

0 | 0

1005.32 МБ

В этой теме нет новых непрочитанных сообщений. Nat Geo Wild: Медвежья школа / Bearhood (2014) HDTV 1080i | P1

salma3

0 | 0

2.21 ГБ


Начать новую тему Ответить на тему  [ 1 сообщение ] 




Для Мосгорсуда, Роскомнадзора и рекламодателей:: mosgorsud-torrent[собачка]yandex.ru
cron