Торрент файл
скачать торрент магнет ссылка Добавлен: 07 янв 2012, 19:46
Размер: 75.79 МБ
Сидеров: 180
Личеров: 10
Автор

СообщениеДобавлено: 07 янв 2012, 19:46 

Не в сети
Супермодератор
Аватара пользователя
Дата регистрации:
22 май 2010, 11:03
Возраст: 31
Спасибо: 7509 / 13
Сообщения: 49940
[b]Abs workout - Лучшие упражнения для брюшного пресса (Level 3)[/b]


Перевод: Отсутствует, cубтитры: отсутствуют
Формат: HDRip, MP4, AVC, AAC
Страна: США
Жанр: Обучающее видео
Продолжительность: 00:12:18
Год выпуска: 2011

Описание: Хочеш иметь стальной пресс? Ты увидиш результат после первой тренировки. Все двенадцать минут и супер пресс.

Видео: 1280x720 (1.78:1), 15.000 fps, Advanced Video Codec High@L3.1 ~790 kbps avg, 0.06 bit/pixel
Аудио: 44.1 kHz, Advanced Audio Codec, 2 ch, ~66.2 kbps avg

General
Complete name : E:\tfile.ru\10_Min_Abs_Workout_Press_Level_3_[tfile.ru].mp4
Format : MPEG-4
Format profile : Base Media / Version 2
Codec ID : mp42
File size : 75.8 MiB
Duration : 12mn 18s
Overall bit rate mode : Variable
Overall bit rate : 861 Kbps
Encoded date : UTC 2011-02-14 19:08:06
Tagged date : UTC 2011-02-14 19:08:06

Video #1
ID : 1
Format : AVC
Format/Info : Advanced Video Codec
Format profile : High@L3.1
Format settings, CABAC : Yes
Format settings, ReFrames : 1 frame
Format settings, GOP : M=1, N=30
Codec ID : avc1
Codec ID/Info : Advanced Video Coding
Duration : 12mn 18s
Bit rate : 790 Kbps
Maximum bit rate : 5 543 Kbps
Width : 1 280 pixels
Height : 720 pixels
Display aspect ratio : 16:9
Frame rate mode : Variable
Frame rate : 15.000 fps
Minimum frame rate : 14.925 fps
Maximum frame rate : 15.152 fps
Color space : YUV
Chroma subsampling : 4:2:0
Bit depth : 8 bits
Scan type : Progressive
Bits/(Pixel*Frame) : 0.057
Stream size : 69.6 MiB (92%)
Tagged date : UTC 2011-02-14 19:08:17
Audio #2
ID : 2
Format : AAC
Format/Info : Advanced Audio Codec
Format profile : LC
Codec ID : 40
Duration : 12mn 18s
Bit rate mode : Variable
Bit rate : 66.2 Kbps
Maximum bit rate : 176 Kbps
Channel(s) : 2 channels
Channel positions : Front: L R
Sampling rate : 44.1 KHz
Compression mode : Lossy
Stream size : 5.81 MiB (8%)
Encoded date : UTC 2011-02-14 19:08:11
Tagged date : UTC 2011-02-14 19:08:17









Поделиться:




реклама партнёра


Вернуться к началу
 Профиль Отправить личное сообщение  
 
   Похожие торренты   Автор   Торрент   Размер 
В этой теме нет новых непрочитанных сообщений. Как запомнить всю колоду из 52 карт (Станислав Матвеев) [2015, Обучающее видео, SATRip]

st.matvv

73 | 12

1.4 ГБ

В этой теме нет новых непрочитанных сообщений. Специалист. Знакомство с Windows 10 и Windows Server (М. Соколов) [2014, Обучающее видео, PCRec]

Nickolas3435

266 | 15

1.68 ГБ

В этой теме нет новых непрочитанных сообщений. Last Chance To Reason - Level 2 [2011, Progressive Deathcore, Experimental, MP3]

PriZraK

0 | 1

100.57 МБ

В этой теме нет новых непрочитанных сообщений. Хатха Йога. Освоение прогибов и Йоганидрасаны. Последовательность среднего уровня [2015, обучающее видео, йога, DVDRip]

a.lihanov

24 | 1

1.33 ГБ

В этой теме нет новых непрочитанных сообщений. lvl (Level) - Denial [2003, Electronic, Industrial Rock, MP3]

PriZraK

0 | 1

79.55 МБ

В этой теме нет новых непрочитанных сообщений. De La Cruz - Street Level [2013, Hard Rock, MP3]

PriZraK

0 | 1

99.82 МБ

В этой теме нет новых непрочитанных сообщений. lvl (Level) - Devil's Advocate [1999, Electronic, Industrial Rock, MP3]

PriZraK

0 | 1

54.5 МБ


Начать новую тему Ответить на тему  [ 1 сообщение ] 




Для Мосгорсуда, Роскомнадзора и рекламодателей:: mosgorsud-torrent[собачка]yandex.ru