Торрент файл
скачать торрент магнет ссылка Добавлен: 01 май 2015, 10:22
Размер: 346.83 МБ
Сидеров: 22
Личеров: 3
Автор

СообщениеДобавлено: 01 май 2015, 10:24 

Не в сети
Аватара пользователя
Дата регистрации:
20 мар 2015, 23:13
Спасибо: 0 / 0
Сообщения: 4
Хатха Йога. Освоение Самаконасаны. Последовательность среднего уровня

Страна: Россия
Тематика: йога
Тип раздаваемого материала: Видеоурок
Продолжительность: 00:18:07
Год выпуска: 2015

Язык: Русский
Перевод: Не требуется

Описание: Комплекс упражнений, направленный на развитие поперечного шпагата (Самаконасаны). С помощью предложенных упражнений вы улучшите гибкость и подвижность тазобедренных суставов, вытяните заднюю поверхность ног, позвоночник и другие части тела.

Доп. информация: Представленный комплекс имеет средний уровень сложности, поэтому он хорошо подойдет для тех, кто уже имеет опыт практики хатха йоги.

Качество: HDRip
Формат: AVI
Видео кодек: XviD
Аудио кодек: MP3
Видео: XviD, 640х480 pixels (4:3), 2392Kbps, 25 fps
Аудио: MP3, 192 Kbps, 44.1 KHz, 2 ch


Общее
Полное имя : F:\Хатха Йога. Освоение Самаконасаны. Последовательность среднего уровня.avi
Формат : AVI
Формат/Информация : Audio Video Interleave
Размер файла : 347 MiB
Продолжительность : 18 мин. 7 с.

Видео
Формат : MPEG-4 Visual
Профиль формата : Advanced Simple@L4
Параметр матрицы формата : Default (H.263)
Идентификатор кодека : XVID
Битрейт : 2392 Кбит/сек
Ширина : 640 пикселей
Высота : 480 пикселей
Соотношение сторон : 4:3
Частота кадров : 25,000 кадров/сек
Цветовое пространство : YUV
Субдискретизация насыщенности : 4:2:0
Битовая глубина : 8 бит
Тип развёртки : Прогрессивная
Метод сжатия : С потерями
Бит/(Пиксели*Кадры) : 0.311
Размер потока : 310 MiB (89%)

Аудио
Формат : MPEG Audio
Идентификатор кодека : MP3
Вид битрейта : Постоянный
Битрейт : 192 Кбит/сек
Каналы : 2 канала
Частота : 44,1 КГц
Размер потока : 24.9 MiB (7%)




реклама партнёра


Вернуться к началу
 Профиль Отправить личное сообщение  
 
   Похожие торренты   Автор   Торрент   Размер 
В этой теме нет новых непрочитанных сообщений. Хатха Йога. Практика для дома. Последовательность начального и среднего уровня [2015, йога, HDRip, RUS] (Видеоурок)

a.lihanov

63 | 1

1.6 ГБ

В этой теме нет новых непрочитанных сообщений. Хатха Йога. Освоение прогибов и Йоганидрасаны. Последовательность среднего уровня [2015, обучающее видео, йога, DVDRip]

a.lihanov

24 | 1

1.33 ГБ

В этой теме нет новых непрочитанных сообщений. Хатха Йога. Последовательность начального уровня с элементами среднего [2015, DVDRip] (Видеоурок)

a.lihanov

74 | 4

1.16 ГБ

В этой теме нет новых непрочитанных сообщений. Недооформлен Институт Реинкарнационики: тренинг "Твое первое путешествие в прошлые жизни" [2014, Духовное Реазвитие/Психология, RUS] (Видеоурок) Данный торрент является блокированным, причина: недооформленный торрент

reincarnistka

4 | 1

1.73 ГБ

В этой теме нет новых непрочитанных сообщений. Комната мертвых / The Dead Room 2015 [Ужасы, 2015] HDRip, Avo

salma3

56 | 3

1.14 ГБ

В этой теме нет новых непрочитанных сообщений. [LustHD.com / TeamSkeet.com] Kaiya - You Do Me And I Do You (07-03-2015) [2015 г., Legal Teen, BJ, Gonzo, Hardcore, All Sex, HDRip, 720p]

killerslava

0 | 1

921.61 МБ

В этой теме нет новых непрочитанных сообщений. [DungeonSex.com / Kink.com] Darling (Fucked Silly / 23-01-2015) [2015 г., BDSM, Bondage, Anal, Facial, Big Tits, Domination, Humiliation, Toys, Hardcore, All Sex, HDRip, 720p]

friizze

6 | 4

2.33 ГБ


Начать новую тему Ответить на тему  [ 1 сообщение ] 




Для Мосгорсуда, Роскомнадзора и рекламодателей:: mosgorsud-torrent[собачка]yandex.ru