Торрент файл
скачать торрент магнет ссылка Добавлен: 01 май 2015, 10:22
Размер: 346.83 МБ
Сидеров: 22
Личеров: 3
Автор

СообщениеДобавлено: 01 май 2015, 10:24 

Не в сети
Аватара пользователя
Дата регистрации:
20 мар 2015, 23:13
Спасибо: 1 / 0
Сообщения: 4
Хатха Йога. Освоение Самаконасаны. Последовательность среднего уровня

Страна: Россия
Тематика: йога
Тип раздаваемого материала: Видеоурок
Продолжительность: 00:18:07
Год выпуска: 2015

Язык: Русский
Перевод: Не требуется

Описание: Комплекс упражнений, направленный на развитие поперечного шпагата (Самаконасаны). С помощью предложенных упражнений вы улучшите гибкость и подвижность тазобедренных суставов, вытяните заднюю поверхность ног, позвоночник и другие части тела.

Доп. информация: Представленный комплекс имеет средний уровень сложности, поэтому он хорошо подойдет для тех, кто уже имеет опыт практики хатха йоги.

Качество: HDRip
Формат: AVI
Видео кодек: XviD
Аудио кодек: MP3
Видео: XviD, 640х480 pixels (4:3), 2392Kbps, 25 fps
Аудио: MP3, 192 Kbps, 44.1 KHz, 2 ch


Общее
Полное имя : F:\Хатха Йога. Освоение Самаконасаны. Последовательность среднего уровня.avi
Формат : AVI
Формат/Информация : Audio Video Interleave
Размер файла : 347 MiB
Продолжительность : 18 мин. 7 с.

Видео
Формат : MPEG-4 Visual
Профиль формата : Advanced Simple@L4
Параметр матрицы формата : Default (H.263)
Идентификатор кодека : XVID
Битрейт : 2392 Кбит/сек
Ширина : 640 пикселей
Высота : 480 пикселей
Соотношение сторон : 4:3
Частота кадров : 25,000 кадров/сек
Цветовое пространство : YUV
Субдискретизация насыщенности : 4:2:0
Битовая глубина : 8 бит
Тип развёртки : Прогрессивная
Метод сжатия : С потерями
Бит/(Пиксели*Кадры) : 0.311
Размер потока : 310 MiB (89%)

Аудио
Формат : MPEG Audio
Идентификатор кодека : MP3
Вид битрейта : Постоянный
Битрейт : 192 Кбит/сек
Каналы : 2 канала
Частота : 44,1 КГц
Размер потока : 24.9 MiB (7%)



Скачать книги и аудио книги через торрент


Вернуться к началу
 Профиль Отправить личное сообщение  
 
   Похожие торренты   Автор   Торрент   Размер 
В этой теме нет новых непрочитанных сообщений. Cherie DeVille & Kenzie Taylor - Кризис среднего возраста сестёр / Sister's Mid-Life Crisis (2019) WEB-DL 720p

zorgi

1 | 1

804.14 МБ

В этой теме нет новых непрочитанных сообщений. Костяной томагавк / Bone Tomahawk [2015] (С. Крэйг Залер) [Ужасы, триллер, драма, приключения, вестерн ] [Blu-Ray ] [1080p] [DD5.1] [Dub Rus,Englis + Subs Rus , ENG] [Лицензия]

Враг Нароода

0 | 0

15.16 ГБ

В этой теме нет новых непрочитанных сообщений. Wicked - Подростковая йога / Teen Yoga (2016) WEB-DLRip

zorgi

1 | 1

1.79 ГБ

В этой теме нет новых непрочитанных сообщений. Доспехи бога: В поисках сокровищ / Кунг-фу йога / Kung-Fu Yoga / Gong Fu Yu Jia (2017) BDRip | Лицензия

NTL

0 | 0

1.46 ГБ

В этой теме нет новых непрочитанных сообщений. Картина красоты / Picture of Beauty (2017) HDRip | Rus

salma3

72 | 4

1.46 ГБ

В этой теме нет новых непрочитанных сообщений. Сексуальная ловушка / Sex Trap (2008) HDRip l Rus

salma3

252 | 125

2.05 ГБ

В этой теме нет новых непрочитанных сообщений. Bang Me Insane 2 / Ударь меня безумнo 2 (Evil Playgrounds) [2015 г., All Sex, 18+ Teens, 540p, WEB-DL] (Split Scenes) [Rus]

salma3

0 | 0

1.3 ГБ


Начать новую тему Ответить на тему  [ 1 сообщение ] 




Для Мосгорсуда, Роскомнадзора и рекламодателей:: mosgorsud-torrent[собачка]yandex.ru
cron