COVID-19 - Последняя информация о коронавирусе на сайте Минздрава




Торрент файл
скачать торрент магнет ссылка Добавлен: 17 июн 2014, 10:22
Размер: 2.13 ГБ
Сидеров: 13
Личеров: 5
Автор

СообщениеДобавлено: 17 июн 2014, 10:22 

Не в сети
Зам. Админа
Аватара пользователя
Дата регистрации:
02 дек 2010, 12:39
Спасибо: 12703 / 214
Сообщения: 27959
Год выпуска: 2013
Жанр: Документальный, история, биография
Выпущено: Wanda films,volcan producciones,alameda films
О фильме: Новейшая история в мире любимой игры восходит к более чем 100 лет. Она началась в 1863 году в Англии, когда регби и футбол ответвляется на собственных путей и Футбольная ассоциация Англии была создана-став первым административный орган этого вида спорта.Оба кода пришли из общего корня, и оба имеют долгую и запутанно разветвленную предков дерево. Поиск на протяжении столетий показывает, по крайней мере полдюжины различных игр, различные в разной степени, и к которому историческое развитие футбола был проследить. Может ли это быть оправдано в некоторых случаях является спорным. Тем не менее, факт остается фактом, что люди наслаждались пинать мяч о в течение тысяч лет, и нет абсолютно никаких оснований считать его аберрация более "естественной" форме играет шар с руки.Напротив, помимо необходимости использования ног и ступней в трудные схватки за мяч, часто без каких-либо законов для защиты, было признано право с самого начала, что искусство контролируя мяч с ноги не было легко, и, как таковой, не требуется немалой степени мастерства. Очень ранняя форма игры, для которых существует научных доказательств было упражнение с военной руководстве, начиная с второго и третьего веков до нашей эры в Китае.Это династии Хань родоначальником футбола назвали Цу 'Чу и он состоял из пиная кожаный мяч, наполненный перьями и волосами через отверстие, размером только 30-40см в ширину, в основной на длинных трости бамбука небольшой сети. Согласно одному из вариантов этого упражнения, игрок не было разрешено направлены на своей цели без препятствий, но пришлось использовать свои ноги, грудь, спина и плечи, пытаясь выдержать атаки своих противников. Использование руках не было разрешено.Другая форма игры, также происходящие с Дальнего Востока, был японский Kemari, который начался некоторые 500-600 лет спустя и все еще играют сегодня. Это спорт не хватает конкурентной элемент Цу 'Чу, не борьба за владение участие. Стоя в кругу, игроки должны были передать мяч друг другу, в относительно небольшом пространстве, стараясь не дать ей коснуться земли.Греческое "Episkyros '- из которых несколько конкретные детали выжить - был гораздо живее, как был римским' Harpastum '. Последний был разыгрывается с меньшим мяч двумя командами на прямоугольном поле, отмеченного граничных линий и центральной линией. Цель состояла в том, чтобы получить мяч над граничных линий оппозиции и как игроки передал его между собой, обман был порядок дня. Игра остается популярным для 700-800 лет, но, хотя римляне взяли его в Великобританию с ними, использование ног было настолько мало, что едва быть следствием.

Качество: HDTV(1080i)
Видео: MPEG-4 AVC, ~ 5000 Кбит/с, 1920x1080
Аудио: AC3, 6 ch, 448 Кбит/с
Продолжительность: 00:52:09
Перевод: Профессиональный двухголосный


General
ID : 1 (0x1)
Complete name : C:Istoriya.futbola.x264.2013.HDTV(1080i).Generalfilm.ts
Format : MPEG-TS
File size : 2.13 GiB
Duration : 52mn 9s
Overall bit rate mode : Variable
Overall bit rate : 5 857 Kbps
Maximum Overall bit rate : 35.5 Mbps

Video
ID : 4113 (0x1011)
Menu ID : 1 (0x1)
Format : AVC
Format/Info : Advanced Video Codec
Format profile : High@L4.0
Format settings, CABAC : No
Format settings, ReFrames : 4 frames
Codec ID : 27
Duration : 52mn 9s
Bit rate mode : Variable
Bit rate : 5 000 Kbps
Maximum bit rate : 40.0 Mbps
Width : 1 920 pixels
Height : 1 080 pixels
Display aspect ratio : 16:9
Frame rate : 25.000 fps
Color space : YUV
Chroma subsampling : 4:2:0
Bit depth : 8 bits
Scan type : MBAFF
Bits/(Pixel*Frame) : 0.096
Stream size : 1.86 GiB (87%)
Writing library : x264 core 124
Encoding settings : cabac=0 / ref=1 / deblock=0:0:0 / analyse=0x3:0x13 / me=dia / subme=1 / psy=1 / psy_rd=1.00:0.00 / mixed_ref=0 / me_range=16 / chroma_me=1 / trellis=0 / 8x8dct=1 / cqm=0 / deadzone=21,11 / fast_pskip=1 / chroma_qp_offset=0 / threads=8 / sliced_threads=0 / nr=0 / decimate=1 / interlaced=tff / bluray_compat=0 / constrained_intra=0 / bframes=3 / b_pyramid=2 / b_adapt=1 / b_bias=0 / direct=1 / weightb=0 / open_gop=0 / weightp=0 / keyint=60 / keyint_min=6 / scenecut=40 / intra_refresh=0 / rc_lookahead=0 / rc=abr / mbtree=0 / bitrate=5000 / ratetol=1.0 / qcomp=0.60 / qpmin=10 / qpmax=51 / qpstep=4 / vbv_maxrate=8000 / vbv_bufsize=6000 / nal_hrd=none / ip_ratio=1.40 / pb_ratio=1.30 / aq=1:1.0

Audio
ID : 4352 (0x1100)
Menu ID : 1 (0x1)
Format : AC-3
Format/Info : Audio Coding 3
Mode extension : CM (complete main)
Format settings, Endianness : Big
Codec ID : 129
Duration : 52mn 9s
Bit rate mode : Constant
Bit rate : 448 Kbps
Channel(s) : 6 channels
Channel positions : Front: L C R, Side: L R, LFE
Sampling rate : 48.0 KHz
Bit depth : 16 bits
Compression mode : Lossy
Stream size : 167 MiB (8%)
Language : Russian



Скачать книги и аудио книги через торрент


Вернуться к началу
 Профиль  
 
   Похожие торренты   Автор   Торрент   Размер 
В этой теме нет новых непрочитанных сообщений. Пожнешь бурю / Inherit the Wind [Драма, история, 1960] HDTV 1080i, Dvo

salma3

0 | 0

7.84 ГБ

В этой теме нет новых непрочитанных сообщений. Христофор Колумб: История открытий / Christopher Columbus: The Discovery [Приключения, биография, история, 1992] HDRip, Avo

salma3

0 | 0

1.46 ГБ

В этой теме нет новых непрочитанных сообщений. Гарриет / Harriet [Биография, история, драма, 2019] DVDScr, Dvo [LakeFilms]

salma3

0 | 0

1.23 ГБ

В этой теме нет новых непрочитанных сообщений. Молодая Виктория / The Young Victoria [драма, биография, история, 2009] BDRip, Dub [Лицензия]

salma3

0 | 0

1.46 ГБ

В этой теме нет новых непрочитанных сообщений. Мой отец Ганди / Gandhi, My Father [драма, биография, история, 2007] DVDRemux, Dvo

salma3

0 | 0

6.52 ГБ

В этой теме нет новых непрочитанных сообщений. Как не стать президентом / The Front Runner [Драма, биография, история, 2018] BDRip, Mvo [Лицензия]

salma3

5 | 0

1.46 ГБ

В этой теме нет новых непрочитанных сообщений. Как не стать президентом / The Front Runner [Драма, биография, история, 2018] HDRip, Mvo [Лицензия]

salma3

0 | 0

747.67 МБ


Начать новую тему Ответить на тему  [ 1 сообщение ] 




Для Мосгорсуда, Роскомнадзора и рекламодателей:: rstracker[собака]yandex.ru
cron