COVID-19 - Последняя информация о коронавирусе на сайте Минздрава




Торрент файл
скачать торрент магнет ссылка Добавлен: 04 июн 2014, 20:57
Размер: 2.82 ГБ
Сидеров: 1
Личеров: 4
Статус: (Dracon)
Автор

СообщениеДобавлено: 04 июн 2014, 20:57 

Не в сети
Дата регистрации:
27 апр 2014, 21:05
Спасибо: 11 / 0
Сообщения: 65
Ланиста Ботиата."Спартак", 1960, Стэнли Кубрик (Алексей Меняйлов)

Перевод: Не требуется, cубтитры: отсутствуют
Формат: WEBRip, MPEG, MPEG2, MP2
Страна: Россия
Режиссер: Алексей Меняйлов
Жанр: Анализ ключевых эпизодов фильма
Продолжительность: 02:04:44
Год выпуска: 2012

Описание: Ланиста – это школа гладиаторов. Под ланисту Ботиат, посвящённый четвёртой ступени по Карте Неба, замаскировал жреческую школу. Первоначально выводил на первую ступень посвящения новичков, а лет через десять занялся проектами покрупнее. Самый известный его проект – восстание рабов, известное как «восстание Спартака». Ролик представляет собой анализ деятельности Ботиата, с привязкой к Карте Неба, на материале лучшей экранизации этого события по книге Говарда Фаста, на русском так до сих пор и не опубликованной, но которую Сталин отметил Сталинской премией 1953 года. Американский шедевр 1960 года, режиссёр – Стенли Кубрик. Фильм отмечен многими Оскарами, в том числе Оскаром отмечен исполнитель роли Ботиата Питер Устинов.

Видео: 720*576 (4:3), 25 fps, MPEG-2, 1150 Kbps
Аудио: 44,1 KHz, MPEG-1 Layer 2, Stereo, ~ 224 Kbps

Общее
Формат : MPEG-PS
Размер файла : 2,82 Гбайт
Продолжительность : 2 ч. 4 м.
Режим общего битрейта : Переменный
Общий поток : 3233 Кбит/сек

Видео
Идентификатор : 224 (0xE0)
Формат : MPEG Video
Версия формата : Version 2
Профиль формата : Main@Main
Параметр BVOP формата : Да
Параметр матрицы формата : По умолчанию
Параметр GOP формата : M=3, N=12
Продолжительность : 2 ч. 4 м.
Вид битрейта : Переменный
Битрейт : 2945 Кбит/сек
Максимальный битрейт : 6000 Кбит/сек
Ширина : 720 пикселей
Высота : 576 пикселей
Соотношение сторон : 4:3
Частота кадров : 25,000 кадров/сек
Стандарт вещания : PAL
Цветовое пространство : YUV
Субдискретизация насыщенности : 4:2:0
Битовая глубина : 8 бит
Тип развёртки : Прогрессивная
Метод сжатия : С потерями
Бит/(Пиксели*Кадры) : 0.284
Временной код первого кадра : 00:00:00:00
Оригинал временного кода : Group of pictures header
Размер потока : 2,57 Гбайт (91%)

Аудио
Идентификатор : 192 (0xC0)
Формат : MPEG Audio
Версия формата : Version 1
Профиль формата : Layer 2
Продолжительность : 2 ч. 4 м.
Вид битрейта : Постоянный
Битрейт : 224 Кбит/сек
Каналы : 2 канала
Частота : 48,0 КГц
Метод сжатия : С потерями
Размер потока : 200 Мбайт (7%)













Скачать книги и аудио книги через торрент


Последний раз редактировалось
vairgin 04 июн 2014, 21:18, всего редактировалось 1 раз.

Вернуться к началу
 Профиль Отправить личное сообщение  
 
   Похожие торренты   Автор   Торрент   Размер 
В этой теме нет новых непрочитанных сообщений. Стэнли и Айрис / Stanley & Iris [Драма, мелодрама, 1990] BDRemux 1080p, Dvo

salma3

1 | 3

16.85 ГБ

В этой теме нет новых непрочитанных сообщений. Сияние / The Shining (Стэнли Кубрик) [US Director's Cut] [1980 г., ужасы, триллер, драма, детектив, BDRip-HEVC 1080p] D, Р

zorgi

0 | 0

11.64 ГБ

В этой теме нет новых непрочитанных сообщений. Спартак / Spartacus [драма, история, 2004] DVDRip-AVC, Mvo

salma3

0 | 0

2.45 ГБ

В этой теме нет новых непрочитанных сообщений. Lust for anal with Naomi Russell (2012) WEBRip

zorgi

24 | 2

698.15 МБ

В этой теме нет новых непрочитанных сообщений. Спартак / Spartacus [Драма, приключения, военный, 1960] BDRip 1080p, Dub [Restored Edition]

salma3

0 | 0

27.68 ГБ

В этой теме нет новых непрочитанных сообщений. Wicked - Домашние правила / House Rules (2012) WEBRip

zorgi

1 | 0

2.18 ГБ

В этой теме нет новых непрочитанных сообщений. Спартак и 10 гладиаторов / Gli invincibili dieci gladiatori [комедия, приключения, история, 1964] DVDRip, Mvo

salma3

0 | 0

1.6 ГБ


Начать новую тему Ответить на тему  [ 1 сообщение ] 




Для Мосгорсуда, Роскомнадзора и рекламодателей:: rstracker[собака]yandex.ru
cron