COVID-19 - Последняя информация о коронавирусе на сайте Минздрава




Торрент файл
скачать торрент магнет ссылка Добавлен: 13 мар 2012, 01:37
Размер: 1.88 ГБ
Сидеров: 80
Личеров: 20
Автор

СообщениеДобавлено: 13 мар 2012, 01:37 

Не в сети
Супермодератор
Аватара пользователя
Дата регистрации:
22 май 2010, 11:03
Возраст: 36
Спасибо: 7929 / 13
Сообщения: 49828
Технологии древних цивилизаций (2 Серии)


Перевод: Профессиональный (одноголосый), cубтитры: отсутствуют
Формат: SATRip, MPEG, MPEG2, MPEG
Страна: Великобритания
Режиссер: Шон Барретт
Жанр: документальный
Продолжительность: 2х ~00:50:00
Год выпуска: 2011

Описание: Древние империи создавались с помощью технологии. Поразительно, как продвинулись в этой сфере античные инженеры.

Технологии древних цивилизаций. Медицина / Technology of ancient civilizations. Medicine
В наши дни античность многим кажется невежественной эпохой, в которой царили нищета и болезни. Но как бы мы удивились, если бы смогли преодолеть 20 минувших веков и очутиться в Римской империи, где медики почти не уступали современным. Будучи агрессивными и воинственными, древние римляне одновременно снискали себе славу искусных врачевателей. Мы опрометчиво считаем все достижения медицины и техники заслугой двух последних столетий. Это не так!.

Технологии древних цивилизаций. Корабли античности / Technology of ancient civilizations. The antiquity ships
Корабли эпохи античности были очень просты по сравнению с совершенными судами наших дней. Или нам так только кажется? Останки двух увеселительных кораблей императора Калигулы, найденные на дне итальянского озера Неми, способны полностью изменить наше представление. Изучение этих "титаников" древнего мира показало, сколь совершенной была инженерная мысль того времени, опередившая многие открытия Леонардо и современные изобретения.


Видео: 720x576 (4:3), 25 fps, MPEG Video Version 2(Main@Main) ~2662 kbps avg, 0.257 bit/pixel
Аудио: 48 kHz, MPEG Audio(Layer 2), 2 ch, ~192 kbps avg
(тех. данные двух файлов идентичны)

Корабли античности.mpg
Format: MPEG-PS
File size: 1.02 GiB
Duration: 49mn 55s
Overall bit rate mode: Variable
Overall bit rate: 2 911 Kbps
Writing library: (c) 1998-2008 Womble Multimedia, Inc. / MPEG Video Wizard (08/2008) / Aug 25 2008

Video
ID: 224 (0xE0)
Format: MPEG Video
Format version: Version 2
Format profile: Main@Main
Format settings, BVOP: Yes
Format settings, Matrix: Custom
Format settings, GOP: M=1, N=28
Duration: 49mn 55s
Bit rate mode: Variable
Bit rate: 2 662 Kbps
Maximum bit rate: 15.0 Mbps
Width: 720 pixels
Height: 576 pixels
Display aspect ratio: 4:3
Frame rate: 25.000 fps
Standard: PAL
Color space: YUV
Chroma subsampling: 4:2:0
Bit depth: 8 bits
Scan type: Interlaced
Scan order: Top Field First
Compression mode: Lossy
Bits/(Pixel*Frame): 0.257
Stream size: 950 MiB (91%)
Writing library: (c) 1998-2008 Womble Multimedia, Inc. / MPEG Video Wizard (08/2008) / Aug 25 2008

Audio
ID: 192 (0xC0)
Format: MPEG Audio
Format version: Version 1
Format profile: Layer 2
Duration: 49mn 55s
Bit rate mode: Constant
Bit rate: 192 Kbps
Channel(s): 2 channels
Sampling rate: 48.0 KHz
Compression mode: Lossy
Stream size: 68.6 MiB (7%)

Медицина.mpg
Format: MPEG-PS
File size: 882 MiB
Duration: 47mn 13s
Overall bit rate mode: Variable
Overall bit rate: 2 610 Kbps
Writing library: (c) 1998-2008 Womble Multimedia, Inc. / MPEG Video Wizard (08/2008) / Aug 25 2008

Video
ID: 224 (0xE0)
Format: MPEG Video
Format version: Version 2
Format profile: Main@Main
Format settings, BVOP: Yes
Format settings, Matrix: Custom
Format settings, GOP: M=1, N=29
Duration: 47mn 13s
Bit rate mode: Variable
Bit rate: 2 366 Kbps
Maximum bit rate: 15.0 Mbps
Width: 720 pixels
Height: 576 pixels
Display aspect ratio: 4:3
Frame rate: 25.000 fps
Standard: PAL
Color space: YUV
Chroma subsampling: 4:2:0
Bit depth: 8 bits
Scan type: Interlaced
Scan order: Top Field First
Compression mode: Lossy
Bits/(Pixel*Frame): 0.228
Stream size: 799 MiB (91%)
Writing library: (c) 1998-2008 Womble Multimedia, Inc. / MPEG Video Wizard (08/2008) / Aug 25 2008

Audio
ID: 192 (0xC0)
Format: MPEG Audio
Format version: Version 1
Format profile: Layer 2
Duration: 47mn 13s
Bit rate mode: Constant
Bit rate: 192 Kbps
Channel(s): 2 channels
Sampling rate: 48.0 KHz
Compression mode: Lossy
Stream size: 64.9 MiB (7%)








Поделиться:



Скачать книги и аудио книги через торрент


Вернуться к началу
 Профиль Отправить личное сообщение  
 
   Похожие торренты   Автор   Торрент   Размер 
В этой теме нет новых непрочитанных сообщений. Зомби по имени Шон / Shaun of the Dead [ужасы, комедия, 2004] WEB-DLRip-AVC, Mvo [Open Matte]

salma3

0 | 0

2.49 ГБ

В этой теме нет новых непрочитанных сообщений. Неизвестная планета : Шаманы и шаманизм [Документальный, научно-популярный, 2005] SATRip

NTL

0 | 0

680.84 МБ

В этой теме нет новых непрочитанных сообщений. Чудо техники с Сергеем Малозёмовым (Эфир от 04.11.2018) (ТК "НТВ") [2018, документальный, познавательный, SATRip]

salma3

0 | 0

545.36 МБ

В этой теме нет новых непрочитанных сообщений. Сорокалетний девственник / Naughty @ 40 [Драма, Комедия, 2011] SATRip, Mvo [Red Media]

salma3

0 | 0

1.36 ГБ

В этой теме нет новых непрочитанных сообщений. Солнечный ноябрь [1-16 серии из 16] [Мелодрама, 2019] WEBRip

salma3

0 | 0

9.18 ГБ

В этой теме нет новых непрочитанных сообщений. Практикант (1-4 серии из 4) [детектив, криминал, 2019] WEBRip

salma3

0 | 0

2.18 ГБ

В этой теме нет новых непрочитанных сообщений. Садовое кольцо (1-12 серии из 12) [мелодрама, 2017] WEB-DL 1080р

salma3

13 | 7

21.7 ГБ


Начать новую тему Ответить на тему  [ 1 сообщение ] 




Для Мосгорсуда, Роскомнадзора и рекламодателей:: rstracker[собака]yandex.ru
cron