COVID-19 - Последняя информация о коронавирусе на сайте Минздрава




Торрент файл
скачать торрент магнет ссылка Добавлен: 23 янв 2012, 21:43
Размер: 144.31 МБ
Сидеров: 4
Личеров: 6
Автор

СообщениеДобавлено: 23 янв 2012, 21:43 

Не в сети
Супермодератор
Аватара пользователя
Дата регистрации:
11 апр 2010, 18:10
Спасибо: 6065 / 7
Сообщения: 56660
Величайшие сражения. Битва при Гастингсе / Command decisions

Перевод: Профессиональный (двухголосый), cубтитры: отсутствуют
Формат: DVDRip, AVI, DivX, MP3
Страна: США
Жанр: документальный
Продолжительность: 00:21:44
Год выпуска: 2004

Описание: Очень часто люди, изучая ключевые моменты истории, говорят себе: "А вот я поступил бы иначе!". На наш взгляд, большинство трагических событий происходило из-за некомпетентности руководителей. А был ли у них иной выбор?

Битва при Гастингсе
В 1066-м году нормандский герцог Уильям организует переправу через Ла-Манш, поклявшийся разгромить могущественную Англо-Саксонскую армию и завоевать трон Англии. На поле боя, в месте под названием Гастингс, Уильям бросает вызов английскому королю Гарольду. Эта битва, которая длилась один день, решила судьбу всего королевства.


Видео: 640x480 (1.33:1), 25 fps, DivX Codec 5.2.1 build 1338 ~790 kbps avg, 0.10 bit/pixel
Аудио: 48 kHz, MPEG Layer 3, 2 ch, ~128.00 kbps avg

General
Complete name: E:\torrents\battle_of_hastings_[tfile.ru].avi
Format: AVI
Format/Info: Audio Video Interleave
File size: 144 MiB
Duration: 21mn 44s
Overall bit rate: 928 Kbps
Writing application: VirtualDubMod 1.5.10.1 (build 2366/release)
Writing library: VirtualDubMod build 2366/release

Video
ID: 0
Format: MPEG-4 Visual
Format settings, BVOP: 1
Format settings, QPel: No
Format settings, GMC: No warppoints
Format settings, Matrix: Default (H.263)
Muxing mode: Packed bitstream
Codec ID: DX50
Codec ID/Hint: DivX 5
Duration: 21mn 44s
Bit rate: 790 Kbps
Width: 640 pixels
Height: 480 pixels
Display aspect ratio: 4:3
Frame rate: 25.000 fps
Color space: YUV
Chroma subsampling: 4:2:0
Bit depth: 8 bits
Scan type: Progressive
Compression mode: Lossy
Bits/(Pixel*Frame): 0.103
Stream size: 123 MiB (85%)
Writing library: DivX 5.2.1 (DrDivX 106) (UTC 2004-09-0

Audio
ID: 1
Format: MPEG Audio
Format version: Version 1
Format profile: Layer 3
Mode: Joint stereo
Mode extension: MS Stereo
Codec ID: 55
Codec ID/Hint: MP3
Duration: 21mn 44s
Bit rate mode: Constant
Bit rate: 128 Kbps
Channel(s): 2 channels
Sampling rate: 48.0 KHz
Compression mode: Lossy
Stream size: 19.9 MiB (14%)
Alignment: Aligned on interleaves
Interleave, duration: 40 ms (1.00 video frame)
Interleave, preload duration: 504 ms






Поделиться:



Скачать книги и аудио книги через торрент


Вернуться к началу
 Профиль Отправить личное сообщение  
 
   Похожие торренты   Автор   Торрент   Размер 
В этой теме нет новых непрочитанных сообщений. Бесстрашный. Битва при Мидуэй / Dauntless: The Battle of Midway [военный, 2019] WEBDLRip, Mvo

salma3

48 | 7

1.37 ГБ

В этой теме нет новых непрочитанных сообщений. Битва при Сарагахри / Kesari [Боевик, драма, военный, 2019] WEB-DLRip, Avo [BadBajo]

salma3

9 | 0

1.46 ГБ

В этой теме нет новых непрочитанных сообщений. Битва при Сарагахри / Kesari [Боевик, военный, история, 2019] WEB-DL 1080, Avo [BadBajo]

salma3

0 | 0

10.4 ГБ

В этой теме нет новых непрочитанных сообщений. Опасная гастроль / Command Performance [Боевик, триллер, драма, 2009] BDRip 1080p, Dvo [Лицензия]

salma3

0 | 0

8.24 ГБ

В этой теме нет новых непрочитанных сообщений. Исполнение приказа / Chain of Command [боевик, 1994] DVDRip, Avo

salma3

0 | 0

1.08 ГБ

В этой теме нет новых непрочитанных сообщений. Битва на гирляндах / Battle of the Bulbs [комедия, семейный, 2010] WEB-DLRip, Dvo [НТВ+]

salma3

0 | 0

1.45 ГБ

В этой теме нет новых непрочитанных сообщений. Битва проклятых / Battle of the Damned [Фантастика, боевик, приключения, 2013] BDRip 1080p, Dvo

salma3

47 | 9

7.73 ГБ


Начать новую тему Ответить на тему  [ 1 сообщение ] 




Для Мосгорсуда, Роскомнадзора и рекламодателей:: rstracker[собака]yandex.ru
cron