COVID-19 - Последняя информация о коронавирусе на сайте Минздрава




Торрент файл
скачать торрент магнет ссылка Добавлен: 23 янв 2012, 21:42
Размер: 800.24 МБ
Сидеров: 12
Личеров: 7
Автор

СообщениеДобавлено: 23 янв 2012, 21:42 

Не в сети
Супермодератор
Аватара пользователя
Дата регистрации:
11 апр 2010, 18:10
Спасибо: 6060 / 7
Сообщения: 56660
Вторая Мировая - Битва за Россию (Фильм 4) / The Battle Of Russia

Перевод: Профессиональный (одноголосый), cубтитры: отсутствуют
Формат: DVDRip, AVI, XviD, AC3
Страна: США
Режиссер: Фрэнк Капра, Анатоль Литвак
Жанр: документальный
Продолжительность: 01:23:00
Год выпуска: 1943

Описание: В этом фильме, номинированном на Оскар, мы увидим борьбу России с захватчиками на протяжении всей ее истории. Сила русского характера была ключом к победе этой страны над немецкими завоевателями во время самых кровавых битв Второй Мировой Войны. Эта картина является прекрасной компиляцией аутентичных материалов из архивов США, а также различных Советских источников.
Фильм снят Управлением Специальных Служб США и Министерством Связи. Это открыто пропагандистский, но очень деликатный экземпляр кинопродукции того периода.




Доп. информация:




Видео: 592x448 (1.32:1), 23.976 fps, XviD Final 1.1 (build 41) ~1149 kbps avg, 0.18 bit/pixel
Аудио: 48 kHz, AC3 Dolby Digital, 2/0 (L,R) ch, ~192 kbps

General
Complete name: E:\torrents\battle_for_russia_[tfile.ru].avi
Format: AVI
Format/Info: Audio Video Interleave
File size: 800 MiB
Duration: 1h 23mn
Overall bit rate: 1 348 Kbps
Writing application: VirtualDubMod 1.5.4.1 (build 2178/release)
Writing library: VirtualDubMod build 2178/release

Video
ID: 0
Format: MPEG-4 Visual
Format profile: Advanced Simple@L5
Format settings, BVOP: 1
Format settings, QPel: No
Format settings, GMC: No warppoints
Format settings, Matrix: Custom
Codec ID: XVID
Codec ID/Hint: XviD
Duration: 1h 23mn
Bit rate: 1 149 Kbps
Width: 592 pixels
Height: 448 pixels
Display aspect ratio: 4:3
Frame rate: 23.976 fps
Color space: YUV
Chroma subsampling: 4:2:0
Bit depth: 8 bits
Scan type: Progressive
Compression mode: Lossy
Bits/(Pixel*Frame): 0.181
Stream size: 682 MiB (85%)
Writing library: XviD 1.1.0 (UTC 2005-11-22)

Audio
ID: 1
Format: AC-3
Format/Info: Audio Coding 3
Mode extension: CM (complete main)
Codec ID: 2000
Duration: 1h 23mn
Bit rate mode: Constant
Bit rate: 192 Kbps
Channel(s): 2 channels
Channel positions: Front: L R
Sampling rate: 48.0 KHz
Bit depth: 16 bits
Compression mode: Lossy
Stream size: 114 MiB (14%)
Alignment: Split accross interleaves
Interleave, duration: 96 ms (2.30 video frames)
Interleave, preload duration: 96 ms
Language: Russian







Поделиться:



Скачать книги и аудио книги через торрент


Вернуться к началу
 Профиль Отправить личное сообщение  
 
   Похожие торренты   Автор   Торрент   Размер 
В этой теме нет новых непрочитанных сообщений. Elegant Angel - Битва задниц 4 / Battle of the Asses 4 (2012) DVDRip

zorgi

0 | 3

1.37 ГБ

В этой теме нет новых непрочитанных сообщений. Битва в Арденнах / Battle of the Bulge [военный, боевик, драма, 1965] BDRip, Mvo

salma3

0 | 0

2.18 ГБ

В этой теме нет новых непрочитанных сообщений. Бесстрашный. Битва при Мидуэй / Dauntless: The Battle of Midway [военный, 2019] WEBDLRip, Mvo

salma3

48 | 7

1.37 ГБ

В этой теме нет новых непрочитанных сообщений. Великая битва / Ansiseong / The Great Battle [боевик, военный, история, 2018] WEBRip, Mvo

salma3

0 | 0

2.18 ГБ

В этой теме нет новых непрочитанных сообщений. Битва проклятых / Battle of the Damned [Фантастика, боевик, приключения, 2013] BDRip 1080p, Dvo

salma3

47 | 9

7.73 ГБ

В этой теме нет новых непрочитанных сообщений. Битва на гирляндах / Battle of the Bulbs [комедия, семейный, 2010] WEB-DLRip, Dvo [НТВ+]

salma3

0 | 0

1.45 ГБ

В этой теме нет новых непрочитанных сообщений. Битва за потерянную планету / Battle for the Lost Planet / Galaxy [боевик, приключения, фантастика, 1986] BDRip-AVC, Mvo

salma3

0 | 0

2.18 ГБ


Начать новую тему Ответить на тему  [ 1 сообщение ] 




Для Мосгорсуда, Роскомнадзора и рекламодателей:: rstracker[собака]yandex.ru
cron