COVID-19 - Последняя информация о коронавирусе на сайте Минздрава




Торрент файл
скачать торрент магнет ссылка Добавлен: 13 мар 2012, 01:33
Размер: 1.6 ГБ
Сидеров: 19
Личеров: 5
Автор

СообщениеДобавлено: 13 мар 2012, 01:33 

Не в сети
Супермодератор
Аватара пользователя
Дата регистрации:
22 май 2010, 11:03
Возраст: 36
Спасибо: 7931 / 13
Сообщения: 49828
Союз: Теневой бизнес удовольствия / The Union: The Business Behind Getting High


Перевод: Любительский (одноголосый), cубтитры: отсутствуют
Формат: DVDRip, AVI, DivX, MP3
Страна: Канада
Режиссер: Бретт Харви
Жанр: документальный
Продолжительность: 01:43:30
Год выпуска: 2007
В ролях: Крис Беннетт, Джордж Буш, Джордж У. Буш, Ларри Кэмпбелл, Риэлль Кэплер, Томми Чонг, Джек А. Коул, Джон Сонрой, Грег Купер, Стивен Истон
Описание:
Союз - так участники подпольного бизнеса по выращиванию и распространению марихуаны назвают свое сообщество.
В фильме рассмотрены: краткая история использования марихуаны, распространенные мифы связанные с марихуаной,
описаны основные цепочки подпольного бизнеса, поднимаются вопросы о целесообразности запретов на это растение,
поднимаются скрываемые от общественности факты использования марихуаны.
Создатели фильма обращают внимание на всё лицемерие существующих законов в отношении конопли.




Видео: 720х400 (16:9), 25 fps, DivX 4 ~2019 kbps avg, 0.28 bit/pixel
Аудио: 48 kHz, MPEG Layer 3, 2 ch, ~183 kbps avg


Общее
Полное имя : The.Union.The.Business.Behind.Getting.High.DVDRip.1600MB.avi
Формат : AVI
Формат/Информация : Audio Video Interleave
Профиль формата : OpenDML
Размер файла : 1,60 Гбайт
Продолжительность : 1 ч. 43 м.
Режим общего битрейта : Переменный
Общий поток : 2216 Кбит/сек
Программа кодирования : MEncoder r33883
Библиотека кодирования : MPlayer

Видео
Идентификатор : 0
Формат : MPEG-4 Visual
Профиль формата : Simple@L1
Параметр матрицы формата : Default
Идентификатор кодека : DIVX
Идентификатор кодека/Информация : Project Mayo
Идентификатор кодека/Подсказка : DivX 4
Продолжительность : 1 ч. 43 м.
Битрейт : 2019 Кбит/сек
Ширина : 720 пикселей
Высота : 400 пикселей
Соотношение сторон : 16:9
Частота кадров : 25,000 кадров/сек
Цветовое пространство : YUV
Субдискретизация насыщенности : 4:2:0
Битовая глубина : 8 бит
Тип развёртки : Прогрессивная
Метод сжатия : С потерями
Бит/(Пиксели*Кадры) : 0.28
Размер потока : 1,46 Гбайт (91%)
Библиотека кодирования : Lavc53.8.0

Аудио
Идентификатор : 1
Формат : MPEG Audio
Версия формата : Version 1
Профиль формата : Layer 3
Режим : Joint stereo
Расширение режима : MS Stereo
Идентификатор кодека : 55
Идентификатор кодека/Подсказка : MP3
Продолжительность : 1 ч. 43 м.
Вид битрейта : Переменный
Битрейт : 183 Кбит/сек
Каналы : 2 канала
Частота : 48,0 КГц
Метод сжатия : С потерями
Размер потока : 135 Мбайт (8%)
Выравнивание : Соединение по промежуткам
Продолжительность промежутка : 24 мс. (0,60 видеокадр)
Время предзагрузки промежутка : 88 мс.
Библиотека кодирования : LAME3.98.4








Поделиться:



Скачать книги и аудио книги через торрент


Вернуться к началу
 Профиль Отправить личное сообщение  
 
   Похожие торренты   Автор   Торрент   Размер 
В этой теме нет новых непрочитанных сообщений. Союз Каламари / Calamari Union [Комедия, 1985] BDRemux 1080p, Mvo

salma3

0 | 0

18.55 ГБ

В этой теме нет новых непрочитанных сообщений. Запрещенные удовольствия / Forbidden Pleasures (1995) DVDRip

zorgi

0 | 0

1.15 ГБ

В этой теме нет новых непрочитанных сообщений. Лесбийские запретные удовольствия 10 / Lesbian Guilty Pleasures 10 (2020) DVDRip

zorgi

36 | 4

927.07 МБ

В этой теме нет новых непрочитанных сообщений. Cherry Kiss - Круиз удовольствия / Pleasure Cruise / Baby Loves A Big Dick (2011) DVDRip

zorgi

8 | 0

444.36 МБ

В этой теме нет новых непрочитанных сообщений. Afternoon Delights / Послеобеденные удовольствия (Shaun Costello (as Warren Evans), Ashton Releasing) [1980 г., Adult | Drama, DVDRip]

salma3

0 | 0

2.42 ГБ

В этой теме нет новых непрочитанных сообщений. [MilfsLikeItBig.com / Brazzers.com] Ivy Secret (Impulse Control Issues / 26.12.2018) [Average Body, Big Tits, Black Stockings, Blouse, Brunette, Business Woman, Caucasian, Enhanced, Glasses, High Heels, Innie Pussy, Medium Skin, 480p, SD]

salma3

0 | 0

413.58 МБ

В этой теме нет новых непрочитанных сообщений. [BigTitsAtWork.com / Brazzers.com] Valentina Jewels (Internal Affairs / 03.10.2018) [Average Body, Big Ass, Big Tits, Blouse, Brunette, Business Woman, High Heels, Latina, Outie Pussy, Piercing, Skirt, Tattoo, Teddy, Trimmed Pussy, 1080p, H

salma3

0 | 0

1.31 ГБ


Начать новую тему Ответить на тему  [ 1 сообщение ] 




Для Мосгорсуда, Роскомнадзора и рекламодателей:: rstracker[собака]yandex.ru
cron