COVID-19 - Последняя информация о коронавирусе на сайте Минздрава




Торрент файл
скачать торрент магнет ссылка Добавлен: 23 янв 2012, 21:02
Размер: 1.06 ГБ
Сидеров: 119
Личеров: 7
Автор

СообщениеДобавлено: 23 янв 2012, 21:02 

Не в сети
Супермодератор
Аватара пользователя
Дата регистрации:
11 апр 2010, 18:10
Спасибо: 6065 / 7
Сообщения: 56660
Дух времени 3: Следующий шаг / Zeitgeist Moving Forward - 3

Перевод: Любительский (одноголосый, закадровый), cубтитры: отсутствуют
Формат: DVDRip, AVI, H264, AAC
Страна: США
Режиссер: Питер Джозеф
Жанр: документальный
Продолжительность: 02:41:36
Год выпуска: 2011

Описание: Продолжение фильмов "Дух времени 1" и"Дух времени 2: приложение".

Zeitgeist: Moving Forward, документальный полнометражный фильм Питера Джозефа (Peter Joseph), в котором рассматривается вопрос необходимости перехода из действующей монетарной социально-экономической мировой системы. Раскрываемая в фильме тема выходит за пределы вопросов культурного релятивизма и традиционной идеологии, и чтобы обозначить основные точки эмпирической взаимосвязи человечества и природы, экстраполирует неизменные ценности естественных законов на новую парадигму устойчивого социально-экономического развития, которая называется “ресурсоориентированная экономика”.
В фильме принимают участие специалисты в области общественного здравоохранения, антропологии, нейропсихологии, экономики, энергетики, технологий, социальных наук и других соответствующих направлений, относящихся к общественной деятельности и культуре. Три центральные темы фильма – человеческое поведение, денежная экономика и прикладная наука. В целом фильм даѐт исчерпывающее понимание текущей социальной парадигмы; почему так важно выйти из неѐ – в сочетании с новым, радикальным, но всѐ же эффективным социальным подходом, который разрешил бы глобальные проблемы современности.

Рейтинг на Кинопоиск:
Видео: 854x 478 (1.77:1), 25 fps, AVC High@L3.0 ~800 kbps avg, 0.079 bit/pixel
Аудио: 44.100 kHz, AAC LC, 2 ch, ~127.00 kbps avg
Трейлер:

Формат : MPEG-4
Профиль формата : Base Media
Идентификатор кодека : isom
Размер файла : 1,06 Гбайт
Продолжительность : 2 ч. 41 м.
Общий поток : 936 Кбит/сек
Программа кодирования : Lavf52.40.0

Видео
Идентификатор : 1
Формат : AVC
Формат/Информация : Advanced Video Codec
Профиль формата : High@L3.0
Параметр CABAC формата : Да
Параметр ReFrames формата : 3 кадры
Идентификатор кодека : avc1
Идентификатор кодека/Информация : Advanced Video Coding
Продолжительность : 2 ч. 41 м.
Вид битрейта : Переменный
Битрейт : 800 Кбит/сек
Ширина : 854 пикс.
Высота : 478 пикс.
Соотношение сторон : 16:9
Режим частоты кадров : Переменный
Частота кадров : 24,952 кадр/сек
Частота кадров в оригинале : 25,000 кадр/сек
Минимальная частота кадров : 4,167 кадр/сек
Максимальная частота кадров : 25,000 кадр/сек
Цветовое пространство : YUV
Подвыборка цветности : 4:2:0
Битовая глубина : 8 бит
Тип развёртки : Прогрессивная
Бит/(Пиксели*Кадры) : 0.079
Размер потока : 929 Мбайт (86%)
Библиотека кодирования : x264 core 79
Язык : Russian

Аудио
Идентификатор : 2
Формат : AAC
Формат/Информация : Advanced Audio Codec
Профиль формата : LC
Идентификатор кодека : 40
Продолжительность : 2 ч. 41 м.
Вид битрейта : Переменный
Битрейт : 127 Кбит/сек
Канал(ы) : 2 канала(ов)
Расположение каналов : Front: L R
Частота : 44,1 КГц
Метод сжатия : С потерями
Размер потока : 147 Мбайт (14%)
Язык : Russian









Поделиться:



Скачать книги и аудио книги через торрент


Вернуться к началу
 Профиль Отправить личное сообщение  
 
   Похожие торренты   Автор   Торрент   Размер 
В этой теме нет новых непрочитанных сообщений. Злой дух / Близкий дух / Pyewacket [ужасы, триллер, драма, 2017] BDRemux 1080p, Dub [iTunes]

salma3

0 | 0

20.16 ГБ

В этой теме нет новых непрочитанных сообщений. Перемещение / Глубоко внутри / Moving In / Ganz Tief Drin (1986) DVDRip

zorgi

33 | 21

1.03 ГБ

В этой теме нет новых непрочитанных сообщений. Smashing Pumpkins - Zeitgeist [Alternative Rock, 2007] FLAC (image+.cue), lossless

Redscarf

0 | 0

387.9 МБ

В этой теме нет новых непрочитанных сообщений. Перемещение / Глубоко внутри / Moving In / Ganz Tief Drin (1986) DVD5

zorgi

3 | 0

2.53 ГБ

В этой теме нет новых непрочитанных сообщений. Бегущая мишень / Moving Target [Боевик, триллер, драма, 1996] BDRip 1080p, Mvo

salma3

2 | 0

7.75 ГБ

В этой теме нет новых непрочитанных сообщений. Бегущий МакАллистер / Moving McAllister [мелодрама, комедия, приключения, 2007] BDRip 1080p, Dvo

salma3

0 | 0

8.78 ГБ

В этой теме нет новых непрочитанных сообщений. Дух леса / Waldgeist [Триллер, 2017] WEBRip, Dvo

salma3

0 | 0

957.57 МБ


Начать новую тему Ответить на тему  [ 1 сообщение ] 




Для Мосгорсуда, Роскомнадзора и рекламодателей:: rstracker[собака]yandex.ru
cron