COVID-19 - Последняя информация о коронавирусе на сайте Минздрава




Торрент файл
скачать торрент магнет ссылка Добавлен: 23 янв 2012, 20:52
Размер: 499.99 МБ
Сидеров: 0
Личеров: 5
Автор

СообщениеДобавлено: 23 янв 2012, 20:52 

Не в сети
Супермодератор
Аватара пользователя
Дата регистрации:
11 апр 2010, 18:10
Спасибо: 6065 / 7
Сообщения: 56660
Молочные реки. Правила жизни

Перевод: Профессиональный (многоголосый, закадровый), cубтитры: отсутствуют
Формат: TVRip, AVI, XviD, MP3
Страна: Украина
Режиссер: Светлана Мамонтова
Жанр: документальный
Продолжительность: 0.48.55
Год выпуска: 2010
В ролях: Валентина Кульчицкая, Наталья Скалозуб, Ростислав Романюк

Описание: Считается, что молоко один из самых полезных для нашего здоровья продуктов... Но сегодня, натурального молока и молочных продуктов практически нет! Их заменили смеси! не полезные, а иногда даже опасные для организма. Мы проверили пять образцов сметаны, и сметаны там не нашли! Чтоб молоко не прокисало- добавляют соду(образуется аммиак). Как отличить настоящее молоко от подделки, правда ли, что йогурты полезны? Из чего состоит сливочное масло? и как не отравиться молочной едой? Человек пил всю жизнь молоко и умер от цирроза печени... Молочные закваски на фекалиях... Обогащение молока растительными жирами... Скот пасущийся возле магистралей- тяжёлые металлы в молоке, домашнее молоко не менее опасно нежели магазинное, чтобы продлить жизнь молока продавцы применяют разнообразные примеси... Как домашнее молоко убило советскую актрису Екатерину Савенову... Молоко с возрастом усваивается всё хуже и провоцирует образование камней в почках...

Видео: 352x288 (1.22:1), 25 fps, XviD build 50 ~1200 kbps avg, 0.47 bit/pixel
Аудио: 32 kHz, Microsoft MPEG, 2 ch, ~224.00 kbps avg

General
Complete name: E:\torrents\molochniye_reki_pravila_zhizni_[tfile.ru].avi
Format: AVI
Format/Info: Audio Video Interleave
File size: 500 MiB
Duration: 48mn 55s
Overall bit rate: 1 429 Kbps
Writing application: MEncoder SVN-r29352(20090610-gcc4.3.3)
Writing library: MPlayer

Video
ID: 0
Format: MPEG-4 Visual
Format profile: Advanced Simple@L5
Format settings, BVOP: 1
Format settings, QPel: No
Format settings, GMC: No warppoints
Format settings, Matrix: Default (H.263)
Codec ID: XVID
Codec ID/Hint: XviD
Duration: 48mn 55s
Bit rate: 1 199 Kbps
Width: 352 pixels
Height: 288 pixels
Display aspect ratio: 4:3
Frame rate: 25.000 fps
Standard: PAL
Color space: YUV
Chroma subsampling: 4:2:0
Bit depth: 8 bits
Scan type: Progressive
Compression mode: Lossy
Bits/(Pixel*Frame): 0.473
Stream size: 420 MiB (84%)
Writing library: XviD 1.2.1 (UTC 2008-12-04)

Audio
ID: 1
Format: MPEG Audio
Format version: Version 1
Format profile: Layer 2
Codec ID: 50
Duration: 48mn 55s
Bit rate mode: Constant
Bit rate: 224 Kbps
Channel(s): 2 channels
Sampling rate: 32.0 KHz
Compression mode: Lossy
Delay relative to video: 40ms
Stream size: 78.4 MiB (16%)
Alignment: Split accross interleaves
Interleave, duration: 500 ms (12.50 video frames)
Interleave, preload duration: 500 ms






Поделиться:



Скачать книги и аудио книги через торрент


Вернуться к началу
 Профиль Отправить личное сообщение  
 
   Похожие торренты   Автор   Торрент   Размер 
В этой теме нет новых непрочитанных сообщений. Капризы реки / Les Caprices d'un fleuve [драма, приключения, 1996] DVDRip, Mvo

salma3

0 | 0

1.42 ГБ

В этой теме нет новых непрочитанных сообщений. Правила бойни / Slaughterhouse Rulez [ужасы, комедия, 2018] BDRip, Mvo [iTunes]

salma3

0 | 0

1.42 ГБ

В этой теме нет новых непрочитанных сообщений. Нарушая все правила / Breaking All the Rules [комедия, криминал, мелодрама, 1985] DVDRip, Mvo

salma3

0 | 0

1.46 ГБ

В этой теме нет новых непрочитанных сообщений. Пираты кровавой реки / Pirates of Blood River [Приключения, пираты, драма, 1962] BDRip 1080p, Mvo

salma3

0 | 0

7.66 ГБ

В этой теме нет новых непрочитанных сообщений. Свет моей жизни / Light of My Life [Драма, 2019] WEB-DLRip, Mvo

salma3

0 | 0

1.46 ГБ

В этой теме нет новых непрочитанных сообщений. Самое главное в жизни / Шедевр / The Next Big Thing [драма, мелодрама, комедия, 2001] DVDRip, Mvo

salma3

0 | 0

1.48 ГБ

В этой теме нет новых непрочитанных сообщений. Любовь с риском для жизни / La chance de ma vie [Мелодрама, комедия, 2010] BDRip-AVC, Dub

salma3

0 | 0

744.5 МБ


Начать новую тему Ответить на тему  [ 1 сообщение ] 




Для Мосгорсуда, Роскомнадзора и рекламодателей:: rstracker[собака]yandex.ru
cron