COVID-19 - Последняя информация о коронавирусе на сайте Минздрава




Торрент файл
скачать торрент магнет ссылка Добавлен: 23 янв 2012, 20:49
Размер: 576.94 МБ
Сидеров: 41
Личеров: 7
Автор

СообщениеДобавлено: 23 янв 2012, 20:49 

Не в сети
Супермодератор
Аватара пользователя
Дата регистрации:
11 апр 2010, 18:10
Спасибо: 6065 / 7
Сообщения: 56660
Технология спаивания


Перевод: Не требуется, cубтитры: отсутствуют
Формат: LowHDRip-AVC, MKV, H.264, MP3
Страна: Россия
Режиссер: Неизвестно
Жанр: документальный
Продолжительность: 00:36:20
Год выпуска: 2012

Описание: В начале 2012 года вышел новый антиалкогольный фильм "Технология спаивания". В фильме приведены интересные данные и сведения об употребления алкоголя. Развенчивается миф о том, что русские всегда пили спиртное. Это ложь. Мы были самым непьющим государством в мире.

Видео: 852 x 480 (1.78:1), 29.970 fps, AVC (х264) Baseline@L1.3, ~ 2047 Kbps, 0.167 bit/pixel
Аудио: 44,1 kHz, MPEG Layer 3, 2 ch, ~128.00 kbps avg

General
Unique ID: 168348648403719580577546155723716462494 (0x7EA6C532C2870C1E037BA147C20E879E)
Complete name: F:\Мои релизы\Все релизы 10\tehnologija_spaivanija_[tfile.ru].mkv
Format: Matroska
File size: 577 MiB
Duration: 36mn 20s
Overall bit rate: 2 219 Kbps
Movie name: Технология спаивания (2012(
Writing application: Lavf51.12.1
Writing library: Lavf51.12.1

Video
ID: 1
Format: AVC
Format/Info: Advanced Video Codec
Format profile: Baseline@L1.3
Format settings, CABAC: No
Format settings, ReFrames: 1 frame
Codec ID: V_MPEG4/ISO/AVC
Duration: 36mn 20s
Bit rate: 2 047 Kbps
Width: 852 pixels
Height: 480 pixels
Display aspect ratio: 16:9
Frame rate: 29.970 fps
Color space: YUV
Chroma subsampling: 4:2:0
Bit depth: 8 bits
Scan type: Progressive
Bits/(Pixel*Frame): 0.167
Stream size: 532 MiB (92%)
Language: English / English

Audio
ID: 2
Format: MPEG Audio
Format version: Version 1
Format profile: Layer 3
Mode: Joint stereo
Mode extension: MS Stereo
Codec ID: A_MPEG/L3
Codec ID/Hint: MP3
Duration: 36mn 20s
Bit rate mode: Constant
Bit rate: 128 Kbps
Channel(s): 2 channels
Sampling rate: 44.1 KHz
Compression mode: Lossy
Stream size: 33.3 MiB (6%)
Writing library: LAME3.97
Language: English / English













Поделиться:



Скачать книги и аудио книги через торрент


Вернуться к началу
 Профиль Отправить личное сообщение  
 
   Похожие торренты   Автор   Торрент   Размер 
В этой теме нет новых непрочитанных сообщений. 2036, происхождение неизвестно / 2036 Origin Unknown [Фантастика, 2018] BDRip, Mvo

salma3

480 | 62

1.46 ГБ

В этой теме нет новых непрочитанных сообщений. 2036, происхождение неизвестно / 2036 Origin Unknown [Фантастика, 2018] BDRemux 1080p, Mvo

salma3

0 | 0

15.88 ГБ

В этой теме нет новых непрочитанных сообщений. В хлам / Smashed [драма, комедия, 2012] HDRip-AVC, Mvo

salma3

11 | 4

744.51 МБ

В этой теме нет новых непрочитанных сообщений. Бездельник / Julayi [Боевик, комедия, 2012] BDRip-AVC, Mvo

salma3

0 | 0

2.23 ГБ

В этой теме нет новых непрочитанных сообщений. Прометей / Prometheus [фантастика, детектив, приключения, 2012] BDRip-AVC, Dub

salma3

0 | 0

1.46 ГБ

В этой теме нет новых непрочитанных сообщений. Запретная зона / Chernobyl Diaries [Ужасы, 2012] BDRip-AVC, Dub

salma3

0 | 0

740.32 МБ

В этой теме нет новых непрочитанных сообщений. Транзит / Transit [триллер, драма, криминал, 2012] HDRip-AVC, Mvo

salma3

4 | 0

743.11 МБ


Начать новую тему Ответить на тему  [ 1 сообщение ] 




Для Мосгорсуда, Роскомнадзора и рекламодателей:: rstracker[собака]yandex.ru
cron